Depeche Mode - 101 [Reissue, Remastered, Stereo, Multichannel] (2021) Blu-ray 1080p

Reply to topic
DL-List and Torrent activity [Update пиров]
Size:  41.93 GB   |    Registered:  1 month 3 days   |    Completed:  0 times
Seeders:  2  [  0 KB/s  ]   Leechers:  1  [  0 KB/s  ]   Show peers in full details
 
   
 
 
Author Message

admin ®

Gender: Male

Longevity: 4 years 3 months

Posts: 14738

Post 15-Dec-2021 16:14

[Quote]

Название: 101 [Reissue, Remastered, Stereo, Multichannel]
Исполнитель: Depeche Mode
Год: 2021
Жанр: Synth-pop
Страна: UK
Продолжительность: 02:00:19+01:13:04
Формат/Кодек: Blu-ray
Разрешение видео/развертка: 1080p
Контейнер:BDMV
Видео кодек:H.264
Аудио кодек:PCM / AC3
Видео:MPEG-4 AVC Video / 19999 kbps / 1080p / 23.976 fps / 16:9 / High Profile 4.1
Аудио #1:English / LPCM Audio / 2.0 / 48 kHz / 2304 kbps / 24-bit
Аудио #2:English / LPCM Audio / 5.1 / 48 kHz / 6912 kbps / 24-bit
Аудио #3:English / Dolby Digital Audio / 5.1 / 48 kHz / 640 kbps / DN -31dB

Треклист:

1 101 (Film)
Rose Bowl Concert
2 Master And Servant
3 Pimpf
4 Behind The Wheel
5 Strangelove
6 Blasphemous Rumours
7 Stripped
8 Somebody
9 Black Celebration
10 Pleasure, Little Treasure
11 Just Can't Get Enough
12 Everything Counts
13 Never Let Me Down Again
Bonus Videos
14 Everything Counts Music Video
15 A Question Of Lust
16 Sacred
17 Something To Do

BDInfo

Disc Title: Depeche Mode - 101
Disc Size: 45 019 958 385 bytes
Protection: AACS
BD-Java: No
BDInfo: 0.5.8
Notes:
BDINFO HOME:
Cinema Squid
INCLUDES FORUMS REPORT FOR:
AVS Forum Blu-ray Audio and Video Specifications Thread
http://www.avsforum.com/avs-vb/showthread.php?t=1155731
********************
PLAYLIST: 00020.MPLS
********************
Код:
Total Video
Title Codec Length Movie Size Disc Size Bitrate Bitrate Main Audio Track Secondary Audio Track
----- ------ ------- -------------- -------------- ------- ------- ------------------ ---------------------
00020.MPLS AVC 2:00:19 28 539 758 592 45 019 958 385 31,63 20,00 LPCM 2.0 2304Kbps (48kHz/24-bit) LPCM 5.1 6912Kbps (48kHz/24-bit)
Код:
DISC INFO:
Disc Title: Depeche Mode - 101
Disc Size: 45 019 958 385 bytes
Protection: AACS
BD-Java: No
BDInfo: 0.5.8
PLAYLIST REPORT:
Name: 00020.MPLS
Length: 2:00:19.462 (h:m:s.ms)
Size: 28 539 758 592 bytes
Total Bitrate: 31,63 Mbps
VIDEO:
Codec Bitrate Deion
----- ------- -----------
MPEG-4 AVC Video 19999 kbps 1080p / 23,976 fps / 16:9 / High Profile 4.1
AUDIO:
Codec Language Bitrate Deion
----- -------- ------- -----------
LPCM Audio English 2304 kbps 2.0 / 48 kHz / 2304 kbps / 24-bit
LPCM Audio English 6912 kbps 5.1 / 48 kHz / 6912 kbps / 24-bit
Dolby Digital Audio English 640 kbps 5.1 / 48 kHz / 640 kbps
SUBTITLES:
Codec Language Bitrate Deion
----- -------- ------- -----------
Presentation Graphics Dutch 13,559 kbps
Presentation Graphics French 14,225 kbps
Presentation Graphics German 15,256 kbps
Presentation Graphics Italian 14,704 kbps
Presentation Graphics Japanese 15,104 kbps
Presentation Graphics Portuguese 15,813 kbps
Presentation Graphics Spanish 14,443 kbps
Presentation Graphics Spanish 13,973 kbps
FILES:
Name Time In Length Size Total Bitrate
---- ------- ------ ---- -------------
00000.M2TS 0:00:00.000 2:00:15.249 28 531 046 400 31 634
00009.M2TS 2:00:15.249 0:00:03.211 8 441 856 21 029
00006.M2TS 2:00:18.461 0:00:01.000 270 336 2 161
CHAPTERS:
Number Time In Length Avg Video Rate Max 1-Sec Rate Max 1-Sec Time Max 5-Sec Rate Max 5-Sec Time Max 10Sec Rate Max 10Sec Time Avg Frame Size Max Frame Size Max Frame Time
------ ------- ------ -------------- -------------- -------------- -------------- -------------- -------------- -------------- -------------- -------------- --------------
1 0:00:00.000 0:01:28.505 15 844 kbps 27 817 kbps 00:00:37.245 25 642 kbps 00:00:34.159 24 734 kbps 00:00:32.365 82 566 bytes 204 901 bytes 00:01:28.505
2 0:01:28.505 0:05:45.845 24 101 kbps 32 780 kbps 00:05:24.407 29 972 kbps 00:04:14.337 29 864 kbps 00:04:45.118 125 654 bytes 246 103 bytes 00:02:12.924
3 0:07:14.350 0:06:47.657 23 260 kbps 31 638 kbps 00:11:59.677 30 262 kbps 00:11:50.209 29 823 kbps 00:10:28.169 121 269 bytes 248 346 bytes 00:11:41.742
4 0:14:02.007 0:06:48.950 20 180 kbps 30 413 kbps 00:15:08.907 27 234 kbps 00:18:05.417 25 423 kbps 00:18:04.416 105 209 bytes 308 123 bytes 00:17:14.158
5 0:20:50.958 0:03:30.501 20 296 kbps 27 246 kbps 00:20:52.876 25 414 kbps 00:22:16.501 25 228 kbps 00:22:13.874 105 815 bytes 214 340 bytes 00:20:52.960
6 0:24:21.460 0:11:27.019 18 932 kbps 31 155 kbps 00:34:31.903 30 023 kbps 00:34:27.857 29 902 kbps 00:34:22.852 98 701 bytes 249 340 bytes 00:28:36.464
7 0:35:48.479 0:10:47.313 19 229 kbps 30 574 kbps 00:45:04.993 29 944 kbps 00:44:52.940 29 845 kbps 00:44:56.360 100 254 bytes 237 203 bytes 00:36:23.598
8 0:46:35.792 0:10:15.615 18 331 kbps 31 998 kbps 00:53:55.857 29 449 kbps 00:48:35.579 28 380 kbps 00:54:01.488 95 572 bytes 235 816 bytes 00:52:14.172
9 0:56:51.408 0:06:53.412 19 056 kbps 31 127 kbps 00:58:00.226 29 891 kbps 00:57:56.181 29 857 kbps 00:57:51.217 99 347 bytes 231 429 bytes 01:03:42.151
10 1:03:44.821 0:09:04.001 22 734 kbps 31 067 kbps 01:10:28.140 29 963 kbps 01:09:08.018 29 782 kbps 01:11:55.936 118 525 bytes 223 731 bytes 01:12:40.439
11 1:12:48.822 0:03:12.901 16 675 kbps 30 437 kbps 01:13:12.096 29 860 kbps 01:13:08.300 28 347 kbps 01:13:07.383 86 933 bytes 210 214 bytes 01:14:27.421
12 1:16:01.723 0:00:52.927 17 550 kbps 30 327 kbps 01:16:40.387 29 864 kbps 01:16:36.508 24 059 kbps 01:16:31.712 91 498 bytes 202 583 bytes 01:16:41.096
13 1:16:54.651 0:02:00.411 27 333 kbps 32 473 kbps 01:18:00.634 30 394 kbps 01:17:56.588 29 939 kbps 01:17:51.500 142 504 bytes 223 062 bytes 01:18:20.987
14 1:18:55.063 0:06:03.738 25 174 kbps 31 165 kbps 01:24:51.252 29 974 kbps 01:21:44.816 29 908 kbps 01:19:15.167 131 244 bytes 277 814 bytes 01:19:39.149
15 1:24:58.802 0:06:45.238 20 219 kbps 30 976 kbps 01:26:15.086 29 897 kbps 01:26:14.961 29 035 kbps 01:26:14.669 105 413 bytes 219 151 bytes 01:26:15.712
16 1:31:44.040 0:05:34.917 20 985 kbps 30 915 kbps 01:37:01.607 29 995 kbps 01:36:57.561 29 575 kbps 01:36:56.685 109 408 bytes 228 191 bytes 01:35:12.998
17 1:37:18.958 0:06:09.494 17 393 kbps 30 772 kbps 01:41:15.778 28 578 kbps 01:37:31.804 27 835 kbps 01:37:26.924 90 679 bytes 208 363 bytes 01:41:16.528
18 1:43:28.452 0:04:13.753 19 115 kbps 31 267 kbps 01:44:00.776 29 818 kbps 01:44:08.367 29 543 kbps 01:44:00.567 99 657 bytes 233 458 bytes 01:44:03.570
19 1:47:42.205 0:12:36.255 16 603 kbps 33 481 kbps 01:54:23.731 29 655 kbps 01:54:03.253 29 133 kbps 01:53:58.206 86 558 bytes 221 742 bytes 01:54:24.399
20 2:00:18.461 0:00:01.001 1 996 kbps 0 kbps 00:00:00.000 0 kbps 00:00:00.000 0 kbps 00:00:00.000 10 860 bytes 182 469 bytes 02:00:19.420
STREAM DIAGNOSTICS:
File PID Type Codec Language Seconds Bitrate Bytes Packets
---- --- ---- ----- -------- -------------- -------------- ------------- -----
00000.M2TS 4113 (0x1011) 0x1B AVC 7215,083 20 006 18 043 143 051 98 161 244
00000.M2TS 4352 (0x1100) 0x80 LPCM eng (English) 7215,083 2 310 2 083 764 200 11 544 400
00000.M2TS 4353 (0x1101) 0x80 LPCM eng (English) 7215,083 6 919 6 239 748 200 34 633 200
00000.M2TS 4354 (0x1102) 0x81 AC3 eng (English) 7215,083 640 577 221 120 3 382 155
00000.M2TS 4608 (0x1200) 0x90 PGS nld (Dutch) 7215,083 14 12 236 154 74 220
00000.M2TS 4609 (0x1201) 0x90 PGS fra (French) 7215,083 14 12 836 936 77 486
00000.M2TS 4610 (0x1202) 0x90 PGS deu (German) 7215,083 15 13 767 394 82 508
00000.M2TS 4611 (0x1203) 0x90 PGS ita (Italian) 7215,083 15 13 269 635 79 830
00000.M2TS 4612 (0x1204) 0x90 PGS jpn (Japanese) 7215,083 15 13 630 607 82 332
00000.M2TS 4613 (0x1205) 0x90 PGS por (Portuguese) 7215,083 16 14 270 197 85 270
00000.M2TS 4614 (0x1206) 0x90 PGS spa (Spanish) 7215,083 14 13 034 066 78 576
00000.M2TS 4615 (0x1207) 0x90 PGS spa (Spanish) 7215,083 14 12 610 129 76 250
00009.M2TS 4113 (0x1011) 0x1B AVC 3,045 10 509 3 999 416 21 784
00009.M2TS 4352 (0x1100) 0x80 LPCM eng (English) 3,045 2 436 927 048 5 136
00009.M2TS 4353 (0x1101) 0x80 LPCM eng (English) 3,045 7 294 2 776 008 15 408
00009.M2TS 4354 (0x1102) 0x81 AC3 eng (English) 3,045 673 256 000 1 500
00006.M2TS 4113 (0x1011) 0x1B AVC 0,834 2 405 250 731 1 368
QUICK SUMMARY:
Disc Title: Depeche Mode - 101
Disc Size: 45 019 958 385 bytes
Protection: AACS
BD-Java: No
Playlist: 00020.MPLS
Size: 28 539 758 592 bytes
Length: 2:00:19.462
Total Bitrate: 31,63 Mbps
Video: MPEG-4 AVC Video / 19999 kbps / 1080p / 23,976 fps / 16:9 / High Profile 4.1
Audio: English / LPCM Audio / 2.0 / 48 kHz / 2304 kbps / 24-bit
Audio: English / LPCM Audio / 5.1 / 48 kHz / 6912 kbps / 24-bit
Audio: English / Dolby Digital Audio / 5.1 / 48 kHz / 640 kbps
Subtitle: Dutch / 13,559 kbps
Subtitle: French / 14,225 kbps
Subtitle: German / 15,256 kbps
Subtitle: Italian / 14,704 kbps
Subtitle: Japanese / 15,104 kbps
Subtitle: Portuguese / 15,813 kbps
Subtitle: Spanish / 14,443 kbps
Subtitle: Spanish / 13,973 kbps
********************
PLAYLIST: 00030.MPLS
********************
Код:
Total Video
Title Codec Length Movie Size Disc Size Bitrate Bitrate Main Audio Track Secondary Audio Track
----- ------ ------- -------------- -------------- ------- ------- ------------------ ---------------------
00030.MPLS AVC 0:54:26 12 852 627 456 45 019 958 385 31,48 19,99 LPCM 2.0 2304Kbps (48kHz/24-bit) LPCM 5.1 6912Kbps (48kHz/24-bit)
Код:
DISC INFO:
Disc Title: Depeche Mode - 101
Disc Size: 45 019 958 385 bytes
Protection: AACS
BD-Java: No
BDInfo: 0.5.8
PLAYLIST REPORT:
Name: 00030.MPLS
Length: 0:54:26.304 (h:m:s.ms)
Size: 12 852 627 456 bytes
Total Bitrate: 31,48 Mbps
VIDEO:
Codec Bitrate Deion
----- ------- -----------
MPEG-4 AVC Video 19990 kbps 1080p / 23,976 fps / 16:9 / High Profile 4.1
AUDIO:
Codec Language Bitrate Deion
----- -------- ------- -----------
LPCM Audio English 2304 kbps 2.0 / 48 kHz / 2304 kbps / 24-bit
LPCM Audio English 6912 kbps 5.1 / 48 kHz / 6912 kbps / 24-bit
Dolby Digital Audio English 640 kbps 5.1 / 48 kHz / 640 kbps
FILES:
Name Time In Length Size Total Bitrate
---- ------- ------ ---- -------------
00005.M2TS 0:00:00.000 0:54:25.303 12 852 357 120 31 488
00006.M2TS 0:54:25.303 0:00:01.000 270 336 2 161
CHAPTERS:
Number Time In Length Avg Video Rate Max 1-Sec Rate Max 1-Sec Time Max 5-Sec Rate Max 5-Sec Time Max 10Sec Rate Max 10Sec Time Avg Frame Size Max Frame Size Max Frame Time
------ ------- ------ -------------- -------------- -------------- -------------- -------------- -------------- -------------- -------------- -------------- --------------
1 0:00:00.000 0:04:36.943 24 309 kbps 33 840 kbps 00:01:49.526 30 555 kbps 00:01:45.480 30 140 kbps 00:01:40.475 126 715 bytes 282 816 bytes 00:02:07.085
2 0:04:36.943 0:01:18.787 23 345 kbps 30 947 kbps 00:05:28.036 29 902 kbps 00:05:27.910 29 195 kbps 00:05:27.618 121 713 bytes 218 065 bytes 00:05:28.661
3 0:05:55.730 0:04:49.664 21 311 kbps 31 853 kbps 00:08:18.539 29 620 kbps 00:06:24.801 29 409 kbps 00:06:22.048 111 106 bytes 231 178 bytes 00:08:19.207
4 0:10:45.394 0:03:56.444 19 583 kbps 31 287 kbps 00:12:56.984 27 735 kbps 00:13:14.794 25 817 kbps 00:12:28.747 102 095 bytes 239 639 bytes 00:13:07.578
5 0:14:41.839 0:04:28.726 16 609 kbps 31 336 kbps 00:14:49.179 29 693 kbps 00:15:53.410 29 495 kbps 00:15:48.864 86 590 bytes 259 021 bytes 00:18:43.872
6 0:19:10.566 0:05:04.304 18 617 kbps 31 836 kbps 00:24:09.698 29 771 kbps 00:20:10.000 26 946 kbps 00:20:48.246 97 059 bytes 249 033 bytes 00:23:48.593
7 0:24:14.870 0:04:31.688 20 784 kbps 32 188 kbps 00:26:40.307 30 143 kbps 00:26:36.469 29 879 kbps 00:27:05.999 108 357 bytes 230 006 bytes 00:26:34.926
8 0:28:46.558 0:03:20.575 21 191 kbps 31 735 kbps 00:29:59.380 30 079 kbps 00:29:55.418 29 937 kbps 00:29:50.371 110 482 bytes 239 306 bytes 00:32:01.127
9 0:32:07.133 0:04:28.184 26 967 kbps 33 800 kbps 00:32:58.434 30 572 kbps 00:34:50.755 30 104 kbps 00:34:45.750 140 596 bytes 279 299 bytes 00:34:04.417
10 0:36:35.318 0:04:04.786 20 516 kbps 31 247 kbps 00:37:02.011 29 874 kbps 00:37:01.677 29 772 kbps 00:37:01.677 106 959 bytes 242 779 bytes 00:37:53.771
11 0:40:40.104 0:05:03.261 17 900 kbps 30 825 kbps 00:44:22.242 26 688 kbps 00:43:43.621 24 741 kbps 00:40:47.695 93 325 bytes 212 679 bytes 00:45:34.064
12 0:45:43.365 0:08:41.938 15 727 kbps 30 266 kbps 00:45:44.575 27 241 kbps 00:45:43.365 25 949 kbps 00:45:43.574 81 991 bytes 227 995 bytes 00:46:13.395
13 0:54:25.303 0:00:01.001 1 996 kbps 0 kbps 00:00:00.000 0 kbps 00:00:00.000 0 kbps 00:00:00.000 10 860 bytes 182 469 bytes 00:54:26.262
STREAM DIAGNOSTICS:
File PID Type Codec Language Seconds Bitrate Bytes Packets
---- --- ---- ----- -------- -------------- -------------- ------------- -----
00005.M2TS 4113 (0x1011) 0x1B AVC 3265,137 19 996 8 161 400 546 44 401 383
00005.M2TS 4352 (0x1100) 0x80 LPCM eng (English) 3265,137 2 311 943 020 084 5 224 488
00005.M2TS 4353 (0x1101) 0x80 LPCM eng (English) 3265,137 6 919 2 823 835 764 15 673 464
00005.M2TS 4354 (0x1102) 0x81 AC3 eng (English) 3265,137 640 261 224 960 1 530 615
00006.M2TS 4113 (0x1011) 0x1B AVC 0,834 2 405 250 731 1 368
QUICK SUMMARY:
Disc Title: Depeche Mode - 101
Disc Size: 45 019 958 385 bytes
Protection: AACS
BD-Java: No
Playlist: 00030.MPLS
Size: 12 852 627 456 bytes
Length: 0:54:26.304
Total Bitrate: 31,48 Mbps
Video: MPEG-4 AVC Video / 19990 kbps / 1080p / 23,976 fps / 16:9 / High Profile 4.1
Audio: English / LPCM Audio / 2.0 / 48 kHz / 2304 kbps / 24-bit
Audio: English / LPCM Audio / 5.1 / 48 kHz / 6912 kbps / 24-bit
Audio: English / Dolby Digital Audio / 5.1 / 48 kHz / 640 kbps
********************
PLAYLIST: 00041.MPLS
********************
Код:
Total Video
Title Codec Length Movie Size Disc Size Bitrate Bitrate Main Audio Track Secondary Audio Track
----- ------ ------- -------------- -------------- ------- ------- ------------------ ---------------------
00041.MPLS AVC 0:05:26 953 640 960 45 019 958 385 23,33 19,94 LPCM 2.0 2304Kbps (48kHz/24-bit)
Код:
DISC INFO:
Disc Title: Depeche Mode - 101
Disc Size: 45 019 958 385 bytes
Protection: AACS
BD-Java: No
BDInfo: 0.5.8
PLAYLIST REPORT:
Name: 00041.MPLS
Length: 0:05:26.993 (h:m:s.ms)
Size: 953 640 960 bytes
Total Bitrate: 23,33 Mbps
VIDEO:
Codec Bitrate Deion
----- ------- -----------
MPEG-4 AVC Video 19941 kbps 1080p / 23,976 fps / 16:9 / High Profile 4.1
AUDIO:
Codec Language Bitrate Deion
----- -------- ------- -----------
LPCM Audio English 2304 kbps 2.0 / 48 kHz / 2304 kbps / 24-bit
FILES:
Name Time In Length Size Total Bitrate
---- ------- ------ ---- -------------
00002.M2TS 0:00:00.000 0:05:25.992 953 370 624 23 396
00006.M2TS 0:05:25.992 0:00:01.000 270 336 2 161
CHAPTERS:
Number Time In Length Avg Video Rate Max 1-Sec Rate Max 1-Sec Time Max 5-Sec Rate Max 5-Sec Time Max 10Sec Rate Max 10Sec Time Avg Frame Size Max Frame Size Max Frame Time
------ ------- ------ -------------- -------------- -------------- -------------- -------------- -------------- -------------- -------------- -------------- --------------
1 0:00:00.000 0:05:25.992 19 996 kbps 31 837 kbps 00:03:48.937 30 116 kbps 00:02:58.428 29 890 kbps 00:04:07.413 104 238 bytes 256 889 bytes 00:03:03.349
2 0:05:25.992 0:00:01.000 1 996 kbps 0 kbps 00:00:00.000 0 kbps 00:00:00.000 0 kbps 00:00:00.000 10 860 bytes 182 469 bytes 00:05:26.951
STREAM DIAGNOSTICS:
File PID Type Codec Language Seconds Bitrate Bytes Packets
---- --- ---- ----- -------- -------------- -------------- ------------- -----
00002.M2TS 4113 (0x1011) 0x1B AVC 325,826 20 007 814 830 664 4 432 957
00002.M2TS 4352 (0x1100) 0x80 LPCM eng (English) 325,826 2 312 94 145 912 521 584
00006.M2TS 4113 (0x1011) 0x1B AVC 0,834 2 405 250 731 1 368
QUICK SUMMARY:
Disc Title: Depeche Mode - 101
Disc Size: 45 019 958 385 bytes
Protection: AACS
BD-Java: No
Playlist: 00041.MPLS
Size: 953 640 960 bytes
Length: 0:05:26.993
Total Bitrate: 23,33 Mbps
Video: MPEG-4 AVC Video / 19941 kbps / 1080p / 23,976 fps / 16:9 / High Profile 4.1
Audio: English / LPCM Audio / 2.0 / 48 kHz / 2304 kbps / 24-bit
********************
PLAYLIST: 00043.MPLS
********************
Код:
Total Video
Title Codec Length Movie Size Disc Size Bitrate Bitrate Main Audio Track Secondary Audio Track
----- ------ ------- -------------- -------------- ------- ------- ------------------ ---------------------
00043.MPLS AVC 0:05:11 907 333 632 45 019 958 385 23,33 19,94 LPCM 2.0 2304Kbps (48kHz/24-bit)
Код:
DISC INFO:
Disc Title: Depeche Mode - 101
Disc Size: 45 019 958 385 bytes
Protection: AACS
BD-Java: No
BDInfo: 0.5.8
PLAYLIST REPORT:
Name: 00043.MPLS
Length: 0:05:11.144 (h:m:s.ms)
Size: 907 333 632 bytes
Total Bitrate: 23,33 Mbps
VIDEO:
Codec Bitrate Deion
----- ------- -----------
MPEG-4 AVC Video 19939 kbps 1080p / 23,976 fps / 16:9 / High Profile 4.1
AUDIO:
Codec Language Bitrate Deion
----- -------- ------- -----------
LPCM Audio English 2304 kbps 2.0 / 48 kHz / 2304 kbps / 24-bit
FILES:
Name Time In Length Size Total Bitrate
---- ------- ------ ---- -------------
00003.M2TS 0:00:00.000 0:05:10.143 907 063 296 23 397
00006.M2TS 0:05:10.143 0:00:01.000 270 336 2 161
CHAPTERS:
Number Time In Length Avg Video Rate Max 1-Sec Rate Max 1-Sec Time Max 5-Sec Rate Max 5-Sec Time Max 10Sec Rate Max 10Sec Time Avg Frame Size Max Frame Size Max Frame Time
------ ------- ------ -------------- -------------- -------------- -------------- -------------- -------------- -------------- -------------- -------------- --------------
1 0:00:00.000 0:05:10.143 19 997 kbps 30 712 kbps 00:01:00.226 29 878 kbps 00:00:58.808 27 227 kbps 00:00:35.952 104 242 bytes 200 610 bytes 00:01:03.229
2 0:05:10.143 0:00:01.000 1 996 kbps 0 kbps 00:00:00.000 0 kbps 00:00:00.000 0 kbps 00:00:00.000 10 860 bytes 182 469 bytes 00:05:11.102
STREAM DIAGNOSTICS:
File PID Type Codec Language Seconds Bitrate Bytes Packets
---- --- ---- ----- -------- -------------- -------------- ------------- -----
00003.M2TS 4113 (0x1011) 0x1B AVC 309,976 20 008 775 246 142 4 217 634
00003.M2TS 4352 (0x1100) 0x80 LPCM eng (English) 309,976 2 312 89 569 876 496 232
00006.M2TS 4113 (0x1011) 0x1B AVC 0,834 2 405 250 731 1 368
QUICK SUMMARY:
Disc Title: Depeche Mode - 101
Disc Size: 45 019 958 385 bytes
Protection: AACS
BD-Java: No
Playlist: 00043.MPLS
Size: 907 333 632 bytes
Length: 0:05:11.144
Total Bitrate: 23,33 Mbps
Video: MPEG-4 AVC Video / 19939 kbps / 1080p / 23,976 fps / 16:9 / High Profile 4.1
Audio: English / LPCM Audio / 2.0 / 48 kHz / 2304 kbps / 24-bit
********************
PLAYLIST: 00042.MPLS
********************
Код:
Total Video
Title Codec Length Movie Size Disc Size Bitrate Bitrate Main Audio Track Secondary Audio Track
----- ------ ------- -------------- -------------- ------- ------- ------------------ ---------------------
00042.MPLS AVC 0:04:10 729 950 208 45 019 958 385 23,31 19,92 LPCM 2.0 2304Kbps (48kHz/24-bit)
Код:
DISC INFO:
Disc Title: Depeche Mode - 101
Disc Size: 45 019 958 385 bytes
Protection: AACS
BD-Java: No
BDInfo: 0.5.8
PLAYLIST REPORT:
Name: 00042.MPLS
Length: 0:04:10.500 (h:m:s.ms)
Size: 729 950 208 bytes
Total Bitrate: 23,31 Mbps
VIDEO:
Codec Bitrate Deion
----- ------- -----------
MPEG-4 AVC Video 19925 kbps 1080p / 23,976 fps / 16:9 / High Profile 4.1
AUDIO:
Codec Language Bitrate Deion
----- -------- ------- -----------
LPCM Audio English 2304 kbps 2.0 / 48 kHz / 2304 kbps / 24-bit
FILES:
Name Time In Length Size Total Bitrate
---- ------- ------ ---- -------------
00001.M2TS 0:00:00.000 0:04:09.499 729 679 872 23 397
00006.M2TS 0:04:09.499 0:00:01.000 270 336 2 161
CHAPTERS:
Number Time In Length Avg Video Rate Max 1-Sec Rate Max 1-Sec Time Max 5-Sec Rate Max 5-Sec Time Max 10Sec Rate Max 10Sec Time Avg Frame Size Max Frame Size Max Frame Time
------ ------- ------ -------------- -------------- -------------- -------------- -------------- -------------- -------------- -------------- -------------- --------------
1 0:00:00.000 0:04:09.499 19 997 kbps 27 551 kbps 00:03:09.981 26 262 kbps 00:03:09.898 25 537 kbps 00:03:09.022 104 237 bytes 191 839 bytes 00:01:01.770
2 0:04:09.499 0:00:01.000 1 996 kbps 0 kbps 00:00:00.000 0 kbps 00:00:00.000 0 kbps 00:00:00.000 10 860 bytes 182 469 bytes 00:04:10.458
STREAM DIAGNOSTICS:
File PID Type Codec Language Seconds Bitrate Bytes Packets
---- --- ---- ----- -------- -------------- -------------- ------------- -----
00001.M2TS 4113 (0x1011) 0x1B AVC 249,332 20 010 623 650 078 3 392 835
00001.M2TS 4352 (0x1100) 0x80 LPCM eng (English) 249,332 2 312 72 055 600 399 200
00006.M2TS 4113 (0x1011) 0x1B AVC 0,834 2 405 250 731 1 368
QUICK SUMMARY:
Disc Title: Depeche Mode - 101
Disc Size: 45 019 958 385 bytes
Protection: AACS
BD-Java: No
Playlist: 00042.MPLS
Size: 729 950 208 bytes
Length: 0:04:10.500
Total Bitrate: 23,31 Mbps
Video: MPEG-4 AVC Video / 19925 kbps / 1080p / 23,976 fps / 16:9 / High Profile 4.1
Audio: English / LPCM Audio / 2.0 / 48 kHz / 2304 kbps / 24-bit
********************
PLAYLIST: 00044.MPLS
********************
Код:
Total Video
Title Codec Length Movie Size Disc Size Bitrate Bitrate Main Audio Track Secondary Audio Track
----- ------ ------- -------------- -------------- ------- ------- ------------------ ---------------------
00044.MPLS AVC 0:03:51 675 606 528 45 019 958 385 23,31 19,92 LPCM 2.0 2304Kbps (48kHz/24-bit)
Код:
DISC INFO:
Disc Title: Depeche Mode - 101
Disc Size: 45 019 958 385 bytes
Protection: AACS
BD-Java: No
BDInfo: 0.5.8
PLAYLIST REPORT:
Name: 00044.MPLS
Length: 0:03:51.898 (h:m:s.ms)
Size: 675 606 528 bytes
Total Bitrate: 23,31 Mbps
VIDEO:
Codec Bitrate Deion
----- ------- -----------
MPEG-4 AVC Video 19921 kbps 1080p / 23,976 fps / 16:9 / High Profile 4.1
AUDIO:
Codec Language Bitrate Deion
----- -------- ------- -----------
LPCM Audio English 2304 kbps 2.0 / 48 kHz / 2304 kbps / 24-bit
FILES:
Name Time In Length Size Total Bitrate
---- ------- ------ ---- -------------
00004.M2TS 0:00:00.000 0:03:50.897 675 336 192 23 399
00006.M2TS 0:03:50.897 0:00:01.000 270 336 2 161
CHAPTERS:
Number Time In Length Avg Video Rate Max 1-Sec Rate Max 1-Sec Time Max 5-Sec Rate Max 5-Sec Time Max 10Sec Rate Max 10Sec Time Avg Frame Size Max Frame Size Max Frame Time
------ ------- ------ -------------- -------------- -------------- -------------- -------------- -------------- -------------- -------------- -------------- --------------
1 0:00:00.000 0:03:50.897 19 999 kbps 31 356 kbps 00:00:33.074 30 027 kbps 00:00:29.279 29 049 kbps 00:00:24.274 104 246 bytes 348 006 bytes 00:02:10.421
2 0:03:50.897 0:00:01.000 1 996 kbps 0 kbps 00:00:00.000 0 kbps 00:00:00.000 0 kbps 00:00:00.000 10 860 bytes 182 469 bytes 00:03:51.856
STREAM DIAGNOSTICS:
File PID Type Codec Language Seconds Bitrate Bytes Packets
---- --- ---- ----- -------- -------------- -------------- ------------- -----
00004.M2TS 4113 (0x1011) 0x1B AVC 230,731 20 013 577 207 228 3 140 204
00004.M2TS 4352 (0x1100) 0x80 LPCM eng (English) 230,731 2 312 66 682 476 369 432
00006.M2TS 4113 (0x1011) 0x1B AVC 0,834 2 405 250 731 1 368
QUICK SUMMARY:
Disc Title: Depeche Mode - 101
Disc Size: 45 019 958 385 bytes
Protection: AACS
BD-Java: No
Playlist: 00044.MPLS
Size: 675 606 528 bytes
Length: 0:03:51.898
Total Bitrate: 23,31 Mbps
Video: MPEG-4 AVC Video / 19921 kbps / 1080p / 23,976 fps / 16:9 / High Profile 4.1
Audio: English / LPCM Audio / 2.0 / 48 kHz / 2304 kbps / 24-bit
********************
PLAYLIST: 00021.MPLS
********************
Код:
Total Video
Title Codec Length Movie Size Disc Size Bitrate Bitrate Main Audio Track Secondary Audio Track
----- ------ ------- -------------- -------------- ------- ------- ------------------ ---------------------
00021.MPLS AVC 0:00:34 79 994 880 45 019 958 385 18,76 16,95 LPCM 2.0 2304Kbps (48kHz/24-bit) LPCM 5.1 6912Kbps (48kHz/24-bit)
Код:
DISC INFO:
Disc Title: Depeche Mode - 101
Disc Size: 45 019 958 385 bytes
Protection: AACS
BD-Java: No
BDInfo: 0.5.8
PLAYLIST REPORT:
Name: 00021.MPLS
Length: 0:00:34.117 (h:m:s.ms)
Size: 79 994 880 bytes
Total Bitrate: 18,76 Mbps
VIDEO:
Codec Bitrate Deion
----- ------- -----------
MPEG-4 AVC Video 16954 kbps 1080p / 23,976 fps / 16:9 / High Profile 4.1
AUDIO:
Codec Language Bitrate Deion
----- -------- ------- -----------
LPCM Audio English 2304 kbps 2.0 / 48 kHz / 2304 kbps / 24-bit
LPCM Audio English 6912 kbps 5.1 / 48 kHz / 6912 kbps / 24-bit
Dolby Digital Audio English 640 kbps 5.1 / 48 kHz / 640 kbps
FILES:
Name Time In Length Size Total Bitrate
---- ------- ------ ---- -------------
00008.M2TS 0:00:00.000 0:00:34.117 79 994 880 18 758
CHAPTERS:
Number Time In Length Avg Video Rate Max 1-Sec Rate Max 1-Sec Time Max 5-Sec Rate Max 5-Sec Time Max 10Sec Rate Max 10Sec Time Avg Frame Size Max Frame Size Max Frame Time
------ ------- ------ -------------- -------------- -------------- -------------- -------------- -------------- -------------- -------------- -------------- --------------
1 0:00:00.000 0:00:34.117 16 954 kbps 27 606 kbps 00:00:00.709 21 003 kbps 00:00:00.709 20 086 kbps 00:00:00.750 88 391 bytes 570 807 bytes 00:00:31.030
STREAM DIAGNOSTICS:
File PID Type Codec Language Seconds Bitrate Bytes Packets
---- --- ---- ----- -------- -------------- -------------- ------------- -----
00008.M2TS 4113 (0x1011) 0x1B AVC 33,951 17 037 72 304 006 393 400
00008.M2TS 4352 (0x1100) 0x80 LPCM eng (English) 33,951 219 928 492 5 144
00008.M2TS 4353 (0x1101) 0x80 LPCM eng (English) 33,951 655 2 780 332 15 432
00008.M2TS 4354 (0x1102) 0x81 AC3 eng (English) 33,951 61 258 560 1 515
QUICK SUMMARY:
Disc Title: Depeche Mode - 101
Disc Size: 45 019 958 385 bytes
Protection: AACS
BD-Java: No
Playlist: 00021.MPLS
Size: 79 994 880 bytes
Length: 0:00:34.117
Total Bitrate: 18,76 Mbps
Video: MPEG-4 AVC Video / 16954 kbps / 1080p / 23,976 fps / 16:9 / High Profile 4.1
Audio: English / LPCM Audio / 2.0 / 48 kHz / 2304 kbps / 24-bit
Audio: English / LPCM Audio / 5.1 / 48 kHz / 6912 kbps / 24-bit
Audio: English / Dolby Digital Audio / 5.1 / 48 kHz / 640 kbps

Скриншоты

 GOLD TORRENT! DOWNLOAD TRAFFIC DOES NOT CONSIDER! 
Torrent: Registered [ 2021-12-15 16:14 ]   · 811B0978DB05040F17057ACFB884FE51DB31D702

Download .torrent

Download

214 KB

Status: checked
Completed: 0 times
Size: 41.93 GB
Поделиться:
terms.php
[Profile] [PM]
Display posts:    
Reply to topic

Current time is: 19-Jan 14:13

All times are UTC + 3



You cannot post new topics in this forum
You cannot reply to topics in this forum
You cannot edit your posts in this forum
You cannot delete your posts in this forum
You cannot vote in polls in this forum
You cannot attach files in this forum
You can download files in this forum