Дюна в 3Д / Dune: Part One 3D (Дени Вильнёв / Denis Villeneuve) [2021, фантастика, боевик, драма, приключения, HDRip] Half SideBySide / Горизонтальная анаморфная стереопара

Reply to topic
DL-List and Torrent activity [Update пиров]
Size:  10.92 GB   |    Registered:  1 month 14 days   |    Completed:  0 times
Seeders:  45  [  0 KB/s  ]   Leechers:  12  [  0 KB/s  ]   Show peers in full details
 
   
 
 
Author Message

admin ®

Gender: Male

Longevity: 4 years 3 months

Posts: 14738

Post 05-Dec-2021 06:15

[Quote]

-Дюна
Dune: Part One

«Час настал»
- Год выпуска: 2021
Страна: США, Канада, Венгрия (Legendary Pictures)
Жанр: фантастика, боевик, драма, приключения
Продолжительность: 02:35:29
Перевод: Профессиональный дублированный - Пифагор (Кинопоиск HD)
Режиссер: Дени Вильнёв / Denis Villeneuve-Роли исполняли (дублировали):
Paul Atreides - Тимоти Шаламе (Глеб Гаврилов)
Lady Jessica Atreides - Ребекка Фергюсон (Ирина Киреева)
Duke Leto Atreides - Оскар Айзек (Антон Эльдаров)
Gurney Halleck - Джош Бролин (Геннадий Новиков)
Duncan Idaho - Джейсон Момоа (Денис Шведов)
Chani - Зендея (Александра Курагина)
Baron Vladimir Harkonnen - Стеллан Скарсгард (Сергей Чихачёв)
Stilgar - Хавьер Бардем (Сергей Чонишвили)
Beast Rabban Harkonnen - Дэйв Батиста (Максим Сергеев)
Reverend Mother Mohiam - Шарлотта Рэмплинг (Наталья Казначеева)
Thufir Hawat - Стивен Хендерсон (Анатолий Хропов)
Dr. Liet Kynes - Шэрон Дункан-Брюстер (Вероника Саркисова)
Dr. Wellington Yueh - Чан Чэнь (Григорий Калинин)
Piter de Vries - Давид Дастмалчян (Александр Вартанов)
Jamis - Бабс Олусанмокун (Илья Исаев)
-Описание: Наследник знаменитого дома Атрейдесов Пол отправляется вместе с семьей на одну из самых опасных планет во Вселенной — Арракис. Здесь нет ничего, кроме песка, палящего солнца, гигантских чудовищ и основной причины межгалактических конфликтов — невероятно ценного ресурса, который называется меланж. В результате захвата власти Пол вынужден бежать и скрываться, и это становится началом его эпического путешествия. Враждебный мир Арракиса приготовил для него множество тяжелых испытаний, но только тот, кто готов взглянуть в глаза своему страху, достоин стать избранным.-Доп. инфо: Хардсаб надписи, которые в 2Д релизах идут на английском, в этом видеоряде на немецком.
Релиз предварительный, поскольку к концу месяца обещают BD 3D.-Премьера: 3 сентября 2021 (16 сентября 2021)
Бюджет: $165 000 000
Кассовые сборы: $373 800 567

. .
-Качество: HDRip (by Ash61) (first source - WEB-DL Ger halfSBS)
Контейнер: MKV
Формат 3D: Half SideBySide / Горизонтальная анаморфная стереопара
Порядок ракурсов: левый ракурс первый-Видео: AVC / 1920х1080p / 23,976 fps / 8.5 Mbps
Аудио:
#1 - Русский / AC3 / 48 KHz / 5.1 ch / 448 Kbps (Дубляж - Пифагор)
#2 - Украинский / AC3 / 48 KHz / 5.1 ch / 448 Kbps (Дубляж - Postmodern)
#3 - English / AC3 / 48 KHz / 5.1 ch / 640 Kbps (Original)
Субтитры (SRT):
Вшитые (softsub):
#1 - Русские Форсированные (включены по умолчанию)
#2 - Русские Полные
#3 - Украинские Форсированные
#4 - English Forced
#5 - English Full
#6 - English SDH
Внешние (UTF-8):
#1 - Русские Форсированные (включены по умолчанию)
#2 - Русские Полные
#3 - Украинские Форсированные
#4 - English Forced

MediaInfo

General
Unique ID : 206663081806644627297168097035417093803 (0x9B79DC9CA2D4C5A7864917DA1CB906AB)
Complete name : D:\Dune1(2021)3D-hSBS(HDRip.Ash61)\Dune1(2021)3D-hSBS(HDRip.Ash61).mkv
Format : Matroska
Format version : Version 2
File size : 10.9 GiB
Duration : 2 h 35 min
Overall bit rate : 10.1 Mb/s
Movie name : Дюна / Dune: Part One (2021) in 3D
Encoded date : UTC 2021-12-03 22:57:58
Writing application : mkvmerge v5.8.0 ('No Sleep / Pillow') built on Sep 2 2012 15:37:04
Writing library : libebml v1.2.3 + libmatroska v1.3.0
Video
ID : 1
Format : AVC
Format/Info : Advanced Video Codec
Format profile : High@L4.1
Format settings : CABAC / 4 Ref Frames
Format settings, CABAC : Yes
Format settings, Reference : 4 frames
Codec ID : V_MPEG4/ISO/AVC
Duration : 2 h 35 min
Bit rate : 8 500 kb/s
Width : 1 920 pixels
Height : 1 080 pixels
Display aspect ratio : 16:9
Frame rate mode : Constant
Frame rate : 23.976 (24000/1001) FPS
Color space : YUV
Chroma subsampling : 4:2:0
Bit depth : 8 bits
Scan type : Progressive
Bits/(Pixel*Frame) : 0.171
Stream size : 9.04 GiB (83%)
Title : HDRip by Ash61 (first source - WEB-DL Ger)
Writing library : x264 core 146 r2538 121396c
Encoding settings : cabac=1 / ref=4 / deblock=1:-3:-3 / analyse=0x3:0x113 / me=umh / subme=10 / psy=1 / psy_rd=1.00:0.00 / mixed_ref=1 / me_range=32 / chroma_me=1 / trellis=2 / 8x8dct=1 / cqm=0 / deadzone=21,11 / fast_pskip=0 / chroma_qp_offset=-2 / threads=12 / lookahead_threads=3 / sliced_threads=0 / nr=0 / decimate=0 / interlaced=0 / bluray_compat=0 / constrained_intra=0 / bframes=10 / b_pyramid=2 / b_adapt=2 / b_bias=0 / direct=3 / weightb=1 / open_gop=0 / weightp=2 / keyint=250 / keyint_min=23 / scenecut=40 / intra_refresh=0 / rc_lookahead=60 / rc=2pass / mbtree=0 / bitrate=8500 / ratetol=1.0 / qcomp=0.70 / qpmin=0 / qpmax=69 / qpstep=4 / cplxblur=20.0 / qblur=0.5 / vbv_maxrate=40000 / vbv_bufsize=30000 / nal_hrd=none / filler=0 / frame-packing=3 / ip_ratio=1.40 / pb_ratio=1.30 / aq=1:0.70
Language : German
Default : Yes
Forced : No
Audio #1
ID : 2
Format : AC-3
Format/Info : Audio Coding 3
Commercial name : Dolby Digital
Codec ID : A_AC3
Duration : 2 h 35 min
Bit rate mode : Constant
Bit rate : 448 kb/s
Channel(s) : 6 channels
Channel layout : L R C LFE Ls Rs
Sampling rate : 48.0 kHz
Frame rate : 31.250 FPS (1536 SPF)
Compression mode : Lossy
Stream size : 498 MiB (4%)
Title : Дубляж - Пифагор (Кинопоиск HD)
Language : Russian
Service kind : Complete Main
Default : Yes
Forced : No
Audio #2
ID : 3
Format : AC-3
Format/Info : Audio Coding 3
Commercial name : Dolby Digital
Codec ID : A_AC3
Duration : 2 h 35 min
Bit rate mode : Constant
Bit rate : 448 kb/s
Channel(s) : 6 channels
Channel layout : L R C LFE Ls Rs
Sampling rate : 48.0 kHz
Frame rate : 31.250 FPS (1536 SPF)
Compression mode : Lossy
Stream size : 498 MiB (4%)
Title : Дубляж - Postmodern
Language : Ukrainian
Service kind : Complete Main
Default : No
Forced : No
Audio #3
ID : 4
Format : AC-3
Format/Info : Audio Coding 3
Commercial name : Dolby Digital
Codec ID : A_AC3
Duration : 2 h 35 min
Bit rate mode : Constant
Bit rate : 640 kb/s
Channel(s) : 6 channels
Channel layout : L R C LFE Ls Rs
Sampling rate : 48.0 kHz
Frame rate : 31.250 FPS (1536 SPF)
Compression mode : Lossy
Stream size : 712 MiB (6%)
Title : Original
Language : English
Service kind : Complete Main
Default : No
Forced : No
Text #1
ID : 5
Format : UTF-8
Codec ID : S_TEXT/UTF8
Codec ID/Info : UTF-8 Plain Text
Title : Форсированные
Language : Russian
Default : Yes
Forced : No
Text #2
ID : 6
Format : UTF-8
Codec ID : S_TEXT/UTF8
Codec ID/Info : UTF-8 Plain Text
Title : Полные
Language : Russian
Default : No
Forced : No
Text #3
ID : 7
Format : UTF-8
Codec ID : S_TEXT/UTF8
Codec ID/Info : UTF-8 Plain Text
Title : Форсированные
Language : Ukrainian
Default : No
Forced : No
Text #4
ID : 8
Format : UTF-8
Codec ID : S_TEXT/UTF8
Codec ID/Info : UTF-8 Plain Text
Title : Forced
Language : English
Default : No
Forced : No
Text #5
ID : 9
Format : UTF-8
Codec ID : S_TEXT/UTF8
Codec ID/Info : UTF-8 Plain Text
Title : Full
Language : English
Default : No
Forced : No
Text #6
ID : 10
Format : UTF-8
Codec ID : S_TEXT/UTF8
Codec ID/Info : UTF-8 Plain Text
Title : SDH
Language : English
Default : No
Forced : No

Для оценки 3Д - Анимированные скрины




















 GOLD TORRENT! DOWNLOAD TRAFFIC DOES NOT CONSIDER! 
Torrent: Registered [ 2021-12-05 06:15 ]   · 109331C59FFFEBFDA17C447755C272818091CF72

Download .torrent

Download

28 KB

Status: checked
Completed: 0 times
Size: 10.92 GB
Поделиться:
terms.php
[Profile] [PM]
Display posts:    
Reply to topic

Current time is: 19-Jan 14:36

All times are UTC + 3



You cannot post new topics in this forum
You cannot reply to topics in this forum
You cannot edit your posts in this forum
You cannot delete your posts in this forum
You cannot vote in polls in this forum
You cannot attach files in this forum
You can download files in this forum