Yes - The Quest (2021) FLAC

Reply to topic
DL-List and Torrent activity [Update пиров]
Size:  408 MB   |    Registered:  20 days   |    Completed:  0 times
Seeders:  1  [  0 KB/s  ]   Leechers:  1  [  0 KB/s  ]   Show peers in full details
 
   
 
 
Author Message

admin ®

Gender: Male

Longevity: 4 years

Posts: 13084

Post 01-Oct-2021 16:00

[Quote]

Название: The Quest
Исполнитель: Yes
Год: 2021
Жанр: Progressive-Rock, Symphonic-Prog
Страна: United Kingdom
Продолжительность: 01:01:23
Формат/Кодек: FLAC
Тип рипа: Tracks
Битрейт аудио: Lossless
Носитель: WEB

Трек-лист

Disc 1
01. The Ice Bridge (7:03)
02. Dare to Know (5:58)
03. Minus the Man (5:35)
04. Leave Well Alone (8:08)
05. The Western Edge (4:25)
06. Future Memories (5:10)
07. Music to My Ears (4:41)
08. A Living Island (6:51)
Disc 2
01. Sister Sleeping Soul (4:50)
02. Mystery Tour (3:35)
03. Damaged World (5:19)

DR
foobar2000 1.4.2 / Dynamic Range Meter 1.1.1
--------------------------------------------------------------------------------
Analyzed: Yes / The Quest
--------------------------------------------------------------------------------
DR Peak RMS Duration Track
--------------------------------------------------------------------------------
DR9 -0.35 dB -10.57 dB 7:00 01-The Ice Bridge
DR10 -0.33 dB -12.14 dB 5:57 02-Dare to Know
DR9 -0.31 dB -11.61 dB 5:34 03-Minus the Man
DR11 -0.36 dB -13.22 dB 8:06 04-Leave Well Alone
DR8 -0.31 dB -10.33 dB 4:24 05-The Western Edge
DR11 -1.84 dB -17.42 dB 5:08 06-Future Memories
DR10 -0.42 dB -11.87 dB 4:40 07-Music to My Ears
DR9 -0.39 dB -12.43 dB 6:51 08-A Living Island
--------------------------------------------------------------------------------
Number of tracks: 8
Official DR value: DR10
Samplerate: 44100 Hz
Channels: 2
Bits per sample: 16
Bitrate: 921 kbps
Codec: FLAC
================================================================================
foobar2000 1.4.2 / Dynamic Range Meter 1.1.1
--------------------------------------------------------------------------------
Analyzed: Yes / The Quest
--------------------------------------------------------------------------------
DR Peak RMS Duration Track
--------------------------------------------------------------------------------
DR10 -0.35 dB -12.17 dB 4:50 01-Sister Sleeping Soul
DR10 -0.33 dB -11.31 dB 3:34 02-Mystery Tour
DR10 -0.49 dB -11.69 dB 5:19 03-Damaged World
--------------------------------------------------------------------------------
Number of tracks: 3
Official DR value: DR10
Samplerate: 44100 Hz
Channels: 2
Bits per sample: 16
Bitrate: 939 kbps
Codec: FLAC
================================================================================
 GOLD TORRENT! DOWNLOAD TRAFFIC DOES NOT CONSIDER! 
Torrent: Registered [ 2021-10-01 16:00 ]   · 356DB4F90C2810A25DAE0FCE34611C35EA934DA8

Download .torrent

Download

17 KB

Status: checked
Completed: 0 times
Size: 408 MB
Поделиться:
terms.php
[Profile] [PM]
Display posts:    
Reply to topic

Current time is: 22-Oct 03:46

All times are UTC + 3



You cannot post new topics in this forum
You cannot reply to topics in this forum
You cannot edit your posts in this forum
You cannot delete your posts in this forum
You cannot vote in polls in this forum
You cannot attach files in this forum
You can download files in this forum