Двойная игра / Предательство для начинающих / Backstabbing for Beginners (2018) BDRip 720p от ELEKTRI4KA | iTunes

Reply to topic
DL-List and Torrent activity [Update пиров]
Size:  3.55 GB   |    Registered:  24 days   |    Completed:  0 times
Seeders:  2  [  0 KB/s  ]   Leechers:  1  [  0 KB/s  ]   Show peers in full details
 
   
 
 
Author Message

admin ®

Gender: Male

Longevity: 3 years 11 months

Posts: 12952

Post 25-Aug-2021 01:57

[Quote]

«If You Dig Too Deep, You May Not Like What Comes Up»
Информация о фильме
Название: Двойная игра / Предательство для начинающих
Оригинальное название: Backstabbing for Beginners
Год выхода: 2018
Жанр: Триллер, драма, история
Режиссер: Пер Флю
В ролях: Тео Джеймс, Бельчим Билгин, Бен Кингсли, Жаклин Биссет, Россиф Сазерленд, Брайан Маркинсон, Рэйчел Уилсон, Шона МакДональд, Даниэла Лавендер, Эйдан Дивайн
О фильме: Молодой идеалист Майкл получает заветную должность координатора в гуманитарной программе ООН. Его отправляют в приходящий себя после войны Ирак, который теперь рвут на части правительственные агенты и представители могущественных нефтяных корпораций. Обжиться на новом месте и вникнуть в дела ему помогает его начальник — знающий регион изнутри дипломат Паша. Чем больше Майкл узнаёт, тем сильнее крепнут подозрения в большом заговоре на самом высоком уровне. Открыть его — значит поставить под удар собственную жизнь и жизни его наставника и курдской женщины, которую он любит.

Выпущено: Дания, Канада, США / Creative Alliance, Eyeworks Scandi Fiction, Hoylake Capital See
Продолжительность: 01:48:20
Озвучивание: Дублированное | iTunes
Файл
Формат: MKV
Качество: BDRip 720p
Видео: MPEG-4 AVC, 3670 Кb/s, 1280x536
Аудио #1: Russian: 48 kHz, AC3 Dolby Digital, 3/2 (L, C, R, l, r) + LFE ch, ~384 Kbps | DUB | iTunes | © ELEKTRI4KA
Аудио #2: English: 48 kHz, AC3 Dolby Digital, 3/2 (L, C, R, l, r) + LFE ch, ~640 Kbps | Original
Субтитры: English
Дополнительно: Сохранены оригинальные чаптеры.

MediaInfo:

Complete name : Dvoynaya.igra.2018.BDRip.720p.ELEKTRI4KA.UNIONGANG.mkv
Format : Matroska
Format version : Version 4
File size : 3.55 GiB
Duration : 1 h 48 min
Overall bit rate : 4 696 kb/s
Movie name : Dvoynaya.igra.2018.BDRip.720p.ELEKTRI4KA.UNIONGANG.
Encoded date : UTC 2021-08-24 16:57:15
Writing application : mkvmerge v8.3.0 ('Over the Horizon') 32bit
Writing library : libebml v1.3.1 + libmatroska v1.4.2
Video
ID : 1
Format : AVC
Format/Info : Advanced Video Codec
Format profile : High@L4.1
Format settings : CABAC / 12 Ref Frames
Format settings, CABAC : Yes
Format settings, Reference frames : 12 frames
Codec ID : V_MPEG4/ISO/AVC
Duration : 1 h 48 min
Bit rate : 3 670 kb/s
Width : 1 280 pixels
Height : 536 pixels
Display aspect ratio : 2.40:1
Frame rate mode : Constant
Frame rate : 23.976 (24000/1001) FPS
Color space : YUV
Chroma subsampling : 4:2:0
Bit depth : 8 bits
Scan type : Progressive
Bits/(Pixel*Frame) : 0.223
Stream size : 2.78 GiB (78%)
Title : fbgjj@HDSky
Writing library : x264 core 148 r2699+6+41 29a38aa Yuuki [8-bit@4:2:0 X86_64][GCC 5.3.0]
Encoding settings : cabac=1 / ref=12 / deblock=1:-3:-3 / analyse=0x3:0x113 / me=umh / subme=11 / psy=1 / fade_compensate=0.00 / psy_rd=1.00:0.05 / mixed_ref=1 / me_range=32 / chroma_me=1 / trellis=2 / 8x8dct=1 / cqm=0 / deadzone=21, 11 / fast_pskip=0 / chroma_qp_offset=-2 / threads=36 / lookahead_threads=4 / sliced_threads=0 / nr=0 / decimate=1 / interlaced=0 / bluray_compat=0 / constrained_intra=0 / fgo=0 / bframes=8 / b_pyramid=2 / b_adapt=2 / b_bias=0 / direct=3 / weightb=1 / open_gop=0 / weightp=2 / keyint=250 / keyint_min=23 / scenecut=40 / intra_refresh=0 / rc=crf / mbtree=0 / crf=16.0000 / qcomp=0.60 / qpmin=0:0:0 / qpmax=69:69:69 / qpstep=4 / ip_ratio=1.40 / pb_ratio=1.30 / aq=3:0.90
Default : Yes
Forced : No
Audio #1
ID : 2
Format : AC-3
Format/Info : Audio Coding 3
Commercial name : Dolby Digital
Codec ID : A_AC3
Duration : 1 h 48 min
Bit rate mode : Constant
Bit rate : 384 kb/s
Channel(s) : 6 channels
Channel layout : L R C LFE Ls Rs
Sampling rate : 48.0 kHz
Frame rate : 31.250 FPS (1536 SPF)
Compression mode : Lossy
Stream size : 297 MiB (8%)
Language : Russian
Service kind : Complete Main
Default : Yes
Forced : No
Audio #2
ID : 3
Format : AC-3
Format/Info : Audio Coding 3
Commercial name : Dolby Digital
Codec ID : A_AC3
Duration : 1 h 48 min
Bit rate mode : Constant
Bit rate : 640 kb/s
Channel(s) : 6 channels
Channel layout : L R C LFE Ls Rs
Sampling rate : 48.0 kHz
Frame rate : 31.250 FPS (1536 SPF)
Compression mode : Lossy
Stream size : 496 MiB (14%)
Title : Original
Language : English
Service kind : Complete Main
Default : No
Forced : No
Text
ID : 4
Format : UTF-8
Codec ID : S_TEXT/UTF8
Codec ID/Info : UTF-8 Plain Text
Duration : 1 h 37 min
Bit rate : 64 b/s
Count of elements : 1267
Stream size : 46.0 KiB (0%)
Title : Full
Language : English
Default : No
Forced : No
Menu
00:00:00.000 : en:Chapter 01
00:06:17.835 : en:Chapter 02
00:13:56.460 : en:Chapter 03
00:20:28.894 : en:Chapter 04
00:26:47.355 : en:Chapter 05
00:34:13.384 : en:Chapter 06
00:39:15.853 : en:Chapter 07
00:47:05.072 : en:Chapter 08
00:55:11.975 : en:Chapter 09
01:01:09.040 : en:Chapter 10
01:08:02.203 : en:Chapter 11
01:13:20.437 : en:Chapter 12
01:20:43.296 : en:Chapter 13
01:28:12.453 : en:Chapter 14
01:34:46.013 : en:Chapter 15
01:39:05.731 : en:Chapter 16

Скриншоты

 GOLD TORRENT! DOWNLOAD TRAFFIC DOES NOT CONSIDER! 
Torrent: Registered [ 2021-08-25 01:57 ]   · E75D4CCD2F466F0F8BB7E8FCBD47291B970A8DED

Download .torrent

Download

10 KB

Status: checked
Completed: 0 times
Size: 3.55 GB
Поделиться:
terms.php
[Profile] [PM]
Display posts:    
Reply to topic

Current time is: 18-Sep 07:27

All times are UTC + 3



You cannot post new topics in this forum
You cannot reply to topics in this forum
You cannot edit your posts in this forum
You cannot delete your posts in this forum
You cannot vote in polls in this forum
You cannot attach files in this forum
You can download files in this forum