Kit Armstrong - The Visionaries Of Piano Music: William Byrd & John Bull [24-bit Hi-Res] (2021) FLAC

Reply to topic
DL-List and Torrent activity [Update пиров]
Size:  2.5 GB   |    Registered:  16 days   |    Completed:  0 times

Seeder not seen: Never

Leechers:  1  [  0 KB/s  ]   Show peers in full details
 
   
 
 
Author Message

admin ®

Gender: Male

Longevity: 3 years 10 months

Posts: 12744

Post 11-Jul-2021 03:32

[Quote]

Название: The Visionaries Of Piano Music: William Byrd & John Bull
Исполнитель: Kit Armstrong
Год: 2021
Жанр: Classical, Piano
Страна: USA
Продолжительность: 02:15:08
Формат/Кодек: FLAC
Разрядность: 24-Bit/96kHz
Битрейт аудио: Lossless

Трек-лист

William Byrd
01. Prelude (Parthenia 1; MB 27/1) (0:40)
02. Pavan “Sir William Petre” (Parthenia 2; MB 27/3a) (4:42)
03. Galliard (Parthenia 3; MB 27/3b) (2:32)
04. The Battle (Nevell 4; MB 28/94) : The Flute and the Drum (1:48)
05. The Woods so Wild - 14 Variations (Fitzwilliam 67; MB 28/85) (3:37)
06. The Maiden's Song - 8 Variations (Fitzwilliam 126; Nevell 28; MB 28/82) (5:32)
07. John Come Kiss Me Now - 16 Variations (Fitzwilliam 10; MB 28/81) (5:22)
John Bull
08. Fantasia (Fitzwilliam 108) (3:58)
09. Fantastic Pavan (Fitzwilliam 34; MB 19/86a) (4:42)
10. Fantastic Galliard (Fitzwilliam 35; MB 19/86b) (1:37)
11. Canons 51 - 48 - 39 - 7 - 15 - 114 (ÖNB Mus. Hs. 17771) (3:40)
12. Prelude "Laet ons met herten reijne" (MB 14/56; BL Add. MS 23623 f. 65) (1:02)
13. Carol "Laet ons met herten reijne" (MB 14/56; BL Add. MS 23623 f. 65) (2:04)
14. Les Buffons - 15 Variations (MB 19/101; BL Add. MS 23623 f. 22) (3:20)
15. Walsingham - 30 Variations (Fitzwilliam 1; MB 19/85) (13:13)
William Byrd
16. Pavan “The Earl of Salisbury” (Parthenia 6; MB 27/15a) (2:03)
17. Galliard (Parthenia 7; MB 27/15b) (1:17)
18. Second Galliard “Mris Marye Bronwlo” (Parthenia 8; MB 27/15c) (3:36)
19. The Bells (Fitzwilliam 69; MB 27/38) (6:08)
John Bull
20. Queen Elizabeth’s (Chromatic) Pavan (MB 19/87a) (4:34)
21. My Grief (Fitzwilliam 190; MB 19/139) (1:55)
William Byrd
22. O Mistress Mine - 6 Variations (Fitzwilliam 66; MB 28/83) (4:28)
23. The Second Ground - 16 Variations (Nevell 30; MB 27/42) (7:08)
John Bull
24. Prelude (Fitzwilliam 43) (1:44)
25. Melancholy Pavan (MB 19/67a) (4:13)
William Byrd
26. The Earl of Oxford’s March (Fitzwilliam 259; Nevell 3; MB 28/93) (3:11)
27. Ut, re, mi, fa, sol, la - Fantasia (Fitzwilliam 101; Nevell 9; MB 28/64) (6:31)
28. Ut, mi, re - Fantasia (Fitzwilliam 102; MB 28/65) (4:54)
John Bull
29. Canons 68 - 78 - 79 - 65 - 3 - 53 (ÖNB Mus. Hs. 17771) (3:28)
William Byrd
30. Walsingham - 22 Variations (Fitzwilliam 68; Nevell 31; MB 27/8) (8:51)
31. Sellinger's Round - 9 Variations (Fitzwilliam 64; Nevell 37; MB 28/84) (4:19)
John Bull
32. Fantasia on a Fugue of Sweelinck (MB 14/4; BL Add. MS 23623 f. 52) (3:53)
33. Telluris ingens conditor: Nos. 1, 2, 3, 6, 7 (MB 14/47; BL Add. Ms 23623 f. 170) (5:02)

DRM
foobar2000 1.4.8 / Dynamic Range Meter 1.1.1
log date: 2021-07-10 05:43:56
--------------------------------------------------------------------------------
Analyzed: Kit Armstrong/Sid McLauchlan/Lukas Kowalski/Lukas Kowalski / The Visionaries of Piano Music
--------------------------------------------------------------------------------
DR Peak RMS Duration Track
--------------------------------------------------------------------------------
DR11 -5.77 dB -20.95 dB 0:40 01-Prelude (Parthenia 1; MB 27/1)
DR12 -5.32 dB -21.92 dB 4:42 02-Pavan “Sir William Petre” (Parthenia 2; MB 27/3a)
DR12 -4.77 dB -20.73 dB 2:32 03-Galliard (Parthenia 3; MB 27/3b)
DR11 -2.07 dB -18.38 dB 1:48 04-The Battle (Nevell 4; MB 28/94): The Flute and the Drum
DR12 -1.13 dB -18.93 dB 3:37 05-The Woods so Wild - 14 Variations (Fitzwilliam 67; MB 28/85)
DR12 -3.70 dB -21.06 dB 5:32 06-The Maiden's Song - 8 Variations (Fitzwilliam 126; Nevell 28; MB 28/82)
DR13 -2.79 dB -19.90 dB 5:22 07-John Come Kiss Me Now - 16 Variations (Fitzwilliam 10; MB 28/81)
DR13 -0.67 dB -20.34 dB 3:58 08-Fantasia (Fitzwilliam 108)
DR12 -1.71 dB -18.40 dB 4:42 09-Fantastic Pavan (Fitzwilliam 34; MB 19/86a)
DR12 -3.00 dB -18.22 dB 1:37 10-Fantastic Galliard (Fitzwilliam 35; MB 19/86b)
DR12 -3.76 dB -20.72 dB 3:40 11-Canons 51 - 48 - 39 - 7 - 15 - 114 (ÖNB Mus. Hs. 17771)
DR13 -10.78 dB -28.14 dB 1:02 12-Prelude 'Laet ons met herten reijne' (MB 14/56; BL Add. MS 23623 f. 65)
DR12 -3.59 dB -20.73 dB 2:04 13-Carol 'Laet ons met herten reijne' (MB 14/56; BL Add. MS 23623 f. 65)
DR13 -1.99 dB -20.32 dB 3:20 14-Les Buffons - 15 Variations (MB 19/101; BL Add. MS 23623 f. 22)
DR13 -0.97 dB -18.56 dB 13:13 15-Walsingham - 30 Variations (Fitzwilliam 1; MB 19/85)
DR12 -13.77 dB -29.40 dB 2:03 16-Pavan “The Earl of Salisbury” (Parthenia 6; MB 27/15a)
DR11 -5.97 dB -20.76 dB 1:17 17-Galliard (Parthenia 7; MB 27/15b)
DR12 -5.28 dB -24.11 dB 3:36 18-Second Galliard “Mris Marye Bronwlo” (Parthenia 8; MB 27/15c)
DR12 -3.35 dB -21.56 dB 6:08 19-The Bells (Fitzwilliam 69; MB 27/38)
DR12 -3.57 dB -19.80 dB 4:34 20-Queen Elizabeth’s (Chromatic) Pavan (MB 19/87a)
DR11 -10.73 dB -30.05 dB 1:55 21-My Grief (Fitzwilliam 190; MB 19/139)
DR13 -3.16 dB -20.68 dB 4:28 22-O Mistress Mine - 6 Variations (Fitzwilliam 66; MB 28/83)
DR14 -1.92 dB -19.33 dB 7:08 23-The Second Ground - 16 Variations (Nevell 30; MB 27/42)
DR11 -8.80 dB -24.83 dB 1:44 24-Prelude (Fitzwilliam 43)
DR12 -1.04 dB -20.14 dB 4:13 25-Melancholy Pavan (MB 19/67a)
DR12 -4.50 dB -20.03 dB 3:11 26-The Earl of Oxford’s March (Fitzwilliam 259; Nevell 3; MB 28/93)
DR12 -4.56 dB -20.83 dB 6:31 27-Ut, re, mi, fa, sol, la - Fantasia (Fitzwilliam 101; Nevell 9; MB 28/64)
DR12 -3.33 dB -19.62 dB 4:54 28-Ut, mi, re - Fantasia (Fitzwilliam 102; MB 28/65)
DR13 -5.09 dB -21.11 dB 3:28 29-Canons 68 - 78 - 79 - 65 - 3 - 53 (ÖNB Mus. Hs. 17771)
DR13 -3.26 dB -20.11 dB 8:51 30-Walsingham - 22 Variations (Fitzwilliam 68; Nevell 31; MB 27/8)
DR13 -2.04 dB -18.35 dB 4:19 31-Sellinger's Round - 9 Variations (Fitzwilliam 64; Nevell 37; MB 28/84)
DR11 -4.99 dB -20.93 dB 3:53 32-Fantasia on a Fugue of Sweelinck (MB 14/4; BL Add. MS 23623 f. 52)
DR12 -5.78 dB -23.56 dB 5:02 33-Telluris ingens conditor: Nos. 1, 2, 3, 6, 7 (MB 14/47; BL Add. Ms 23623 f. 170)
--------------------------------------------------------------------------------
Number of tracks: 33
Official DR value: DR12
Samplerate: 96000 Hz
Channels: 2
Bits per sample: 24
Bitrate: 2598 kbps
Codec: FLAC
================================================================================
 GOLD TORRENT! DOWNLOAD TRAFFIC DOES NOT CONSIDER! 
Torrent: Registered [ 2021-07-11 03:32 ]   · 3D18E9DE4D388CCE2170C128F44C292B3BD24A04

Download .torrent

Download

17 KB

Status: checked
Completed: 0 times
Size: 2.5 GB
Поделиться:
terms.php
[Profile] [PM]
Display posts:    
Reply to topic

Current time is: 27-Jul 11:27

All times are UTC + 3



You cannot post new topics in this forum
You cannot reply to topics in this forum
You cannot edit your posts in this forum
You cannot delete your posts in this forum
You cannot vote in polls in this forum
You cannot attach files in this forum
You can download files in this forum