Devin Townsend - Galactic Quarantine [Devolution Series 2] (2021) BDRemux 1080p

Reply to topic
DL-List and Torrent activity [Update пиров]
Size:  18.61 GB   |    Registered:  18 days   |    Completed:  0 times

Seeder not seen: Never

Leechers:  4  [  0 KB/s  ]   Show peers in full details
 
   
 
 
Author Message

admin ®

Gender: Male

Longevity: 3 years 10 months

Posts: 12744

Post 09-Jul-2021 03:49

[Quote]

Название: Galactic Quarantine
Исполнитель: Devin Townsend
Состав: Девин Таунсенд, Самус Пауличелли, Уэс Хауч, Диего Техейда
Год выпуска: 2021
Выпущено: Европа, Sony Music, Warner Music
Жанр: Progressive-Metal
Продолжительность: 01:22:47
Описание: Новый виртуальный концерт легенды прог-метала Девина Таунсенда. Запись "Galactic Quarantine - Devolution Series #2" была записана в период с июля по сентябрь 2020 года в различных местах по всему миру. Первоначально транслировалась 5 сентября 2020 года на StageIt.com в качестве шоу, заменившего “Empath Vol 2 European Tour” (отмененный из-за пандемии), и различных отмененных летних фестивалей. В шоу участвуют Девин на вокале и гитарах, Самус Пауличелли III на барабанах, Уэс Хауч на гитарах и Диего Техейда на клавишных.
Релиз от: Racketa
Качество: BDRemux 1080p
Видео: MPEG-4 AVC, 30 Мбит/с, 1920x1080
Аудио 1: DTS-HA MA, 2 ch, 2190 Кбит/с

Композиции концерта

01. Velvet Kevorkian - (Virtually Live 2020)
02. All Hail The New Flesh - (Virtually Live 2020)
03. By Your Command - (Virtually Live 2020)
04. Almost Again - (Virtually Live 2020)
05. Juular - (Virtually Live 2020)
06. March of the Poozers - (Virtually Live 2020)
07. Supercrush! - (Virtually Live 2020)
08. Hyperdrive - (Virtually Live 2020)
09. Stormbending - (Virtually Live 2020)
10. Deadhead - (Virtually Live 2020)
11. Aftermath - (Virtually Live 2020)
12. Love? - (Virtually Live 2020)
13. Spirits Will Collide - (Virtually Live 2020)
14. Kingdom - (Virtually Live 2020)
15. Detox - (Virtually Live 2020)

Скриншоты


Инфо

Общее
Уникальный идентификатор : 190379801030399973607638422593829221778 (0x8F39D0E2D381C78BFE357C21DD023592)
Полное имя : D:Devin.Townsend.-.Devolution.Series.#.2.Galactic.Quarantine.2021.1080p.BluRay.Remux.mkv
Формат : Matroska
Версия формата : Version 4
Размер файла : 18,6 Гбайт
Продолжительность : 1 ч. 22 м.
Режим общего битрейта : Переменный
Общий поток : 32,2 Мбит/сек
Название фильма : Devin Townsend - Galactic Quarantine (Devolution Series #2) (2021)
Дата кодирования : UTC 2021-07-07 22:55:05
Программа кодирования : mkvmerge v44.0.0 ('Domino') 64-bit
Библиотека кодирования : libebml v1.3.10 + libmatroska v1.5.2
Attachments : poster.jpg
Видео
Идентификатор : 1
Формат : AVC
Формат/Информация : Advanced Video Codec
Профиль формата : High@L4.1
Настройки формата : CABAC / 4 Ref Frames
Параметр CABAC формата : Да
Параметр RefFrames формата : 4 кадра
Идентификатор кодека : V_MPEG4/ISO/AVC
Продолжительность : 1 ч. 22 м.
Вид битрейта : Переменный
Битрейт : 30,0 Мбит/сек
Максимальный битрейт : 35,0 Мбит/сек
Ширина : 1 920 пикселей
Высота : 1 080 пикселей
Соотношение сторон : 16:9
Режим частоты кадров : Постоянный
Частота кадров : 24,000 кадра/сек
Цветовое пространство : YUV
Субдискретизация насыщенности : 4:2:0
Битовая глубина : 8 бит
Тип развёртки : Прогрессивная
Бит/(Пиксели*Кадры) : 0.602
Размер потока : 17,3 Гбайт (93%)
Заголовок : Devin Townsend - Galactic Quarantine (Devolution Series #2) (2021)
Язык : English
Default : Да
Forced : Да
Цветовой диапазон : Limited
Основные цвета : BT.709
Характеристики трансфера : BT.709
Коэффициенты матрицы : BT.709
Аудио
Идентификатор : 2
Формат : DTS XLL
Формат/Информация : Digital Theater Systems
Коммерческое название : DTS-HD Master Audio
Идентификатор кодека : A_DTS
Продолжительность : 1 ч. 22 м.
Вид битрейта : Переменный
Битрейт : 2 190 Кбит/сек
Каналы : 2 канала
Channel layout : L R
Частота : 48,0 КГц
Частота кадров : 93,750 кадра/сек (512 SPF)
Битовая глубина : 24 бит
Метод сжатия : Без потерь
Размер потока : 1,27 Гбайт (7%)
Default : Да
Forced : Нет
Меню
00:00:00.000 : :Intro 01
00:00:57.333 : :Velvet Kevorkian - (Virtually Live 2020) 02
00:02:19.708 : :All Hail The New Flesh - (Virtually Live 2020) 03
00:08:02.000 : :By Your Command - (Virtually Live 2020) 04
00:16:16.500 : :Almost Again - (Virtually Live 2020) 05
00:20:23.125 : :Juular - (Virtually Live 2020) 06
00:24:57.166 : :March of the Poozers - (Virtually Live 2020) 07
00:30:31.750 : :Supercrush! - (Virtually Live 2020) 08
00:36:19.458 : :Hyperdrive - (Virtually Live 2020) 09
00:40:01.583 : :Stormbending - (Virtually Live 2020) 10
00:45:41.125 : :Deadhead - (Virtually Live 2020) 11
00:53:44.208 : :Aftermath - (Virtually Live 2020) 12
01:00:37.416 : :Love? - (Virtually Live 2020) 13
01:06:02.916 : :Spirits Will Collide - (Virtually Live 2020) 14
01:10:38.125 : :Kingdom - (Virtually Live 2020) 15
01:16:27.166 : :Detox - (Virtually Live 2020) 16
01:22:47.166 : :The End 17
 GOLD TORRENT! DOWNLOAD TRAFFIC DOES NOT CONSIDER! 
Torrent: Registered [ 2021-07-09 03:49 ]   · 607806491FD48E1874E23E9F02384684F9BA4B4A

Download .torrent

Download

47 KB

Status: checked
Completed: 0 times
Size: 18.61 GB
Поделиться:
terms.php
[Profile] [PM]
Display posts:    
Reply to topic

Current time is: 27-Jul 11:03

All times are UTC + 3



You cannot post new topics in this forum
You cannot reply to topics in this forum
You cannot edit your posts in this forum
You cannot delete your posts in this forum
You cannot vote in polls in this forum
You cannot attach files in this forum
You can download files in this forum