Что? Где? Когда? Летняя серия игр [01-03 из 05] (2021) HDTV 1080i

Reply to topic
DL-List and Torrent activity [Update пиров]
Size:  9.64 GB   |    Registered:  12 days   |    Completed:  0 times
Seeders:  23  [  0 KB/s  ]   Leechers:  19  [  0 KB/s  ]   Show peers in full details
 
   
 
 
Author Message

admin ®

Gender: Male

Longevity: 3 years 8 months

Posts: 12013

Post 07-Jun-2021 22:23

[Quote]

Информация о фильме
Название: Что? Где? Когда?
Год выхода: 2021
Жанр: Телевизионная игра, познавательный, развлекательный, интеллектуальный
Ведущий: Борис Крюк
О фильме:
Интеллектуальная викторина, наиболее распространённая в русскоязычной среде. Была создана в 1975 г. телеведущим Владимиром Ворошиловым. Игра очень быстро стала настолько популярной, что кроме оригинальной телевизионной версии появилась спортивная версия игры. Сущность игры заключается в противостоянии команды Знатоков (игровой команды из шести человек) команде Телезрителей. Знатоки должны за одну минуту при помощи мозгового штурма найти ответ на вопрос, присланный телезрителем. Как правило, игрокам задаются вопросы, ответить на которые можно с помощью общих знаний и логики. За каждый правильный ответ команда Знатоков получает одно очко, в случае неверного ответа очко начисляется команде Телезрителей. Игра ведётся до шести очков.

Анонс

Первая игра, команда Дмитрия Локтикова: Денис Потехин, Павел Журавлёв, Диана Агейченкова, Николай Сенькин, Николай Русскин, Дмитрий Локтиков.
Вторая игра, команда Алёны Повышевой: Иван Марышев, Алексей Самулёв, Юрий Филиппов, Максим Поташев, Ия Метревели, Алёна Повышева.
Третья игра, команда Виктора Сиднева: Борис Левин, Михаил Карпук, Екатерина Мереминская, Инна Семёнова, Александр Друзь, Виктор Сиднев.
Страна: Россия
Студия: Продюсерский центр "ИГРА-ТВ"
Продолжительность: 3 х ~ 01:00:00
Язык: Русский
Премьера: 23 мая 2021 года (Первый канал HD)
Примечание: Без рекламы
Файл
Формат: MKV
Качество: HDTV 1080i
Видео: MPEG-4 AVC, ~ 6879 Кбит/с, 1920x1080
Аудио #01: AC3, 2 ch, 384 Кбит/с | RUS
Аудио #02: MP2, 2 ch, 192 Кбит/с | RUS

Скриншоты

MI

Общее
Уникальный идентификатор : 114833764946332967679339025050745501676 (0x56642DBC3F7E19F46B002F68CC40F7EC)
Полное имя : D:Chto.Gde.Kogda.Letnyaya.seriya.igr.2021.HDTV.1080i3.Chto.Gde.Kogda.Letnyaya.seriya.igr.06.06.2021.HDTV.1080i.mkv
Формат : Matroska
Версия формата : Version 4
Размер файла : 3,48 Гбайт
Продолжительность : 1 ч. 6 м.
Общий поток : 7 458 Кбит/сек
Название фильма : 03.Chto.Gde.Kogda.Letnyaya.seriya.igr.06.06.2021.HDTV.1080i
Дата кодирования : UTC 2021-06-06 21:01:09
Программа кодирования : mkvmerge v57.0.0 ('Till The End') 64-bit
Библиотека кодирования : libebml v1.4.2 + libmatroska v1.6.4
Attachments : poster.jpg
Видео
Идентификатор : 1
Формат : AVC
Формат/Информация : Advanced Video Codec
Профиль формата : High@L4
Настройки формата : CABAC / 4 Ref Frames
Параметр CABAC формата : Да
Параметр RefFrames формата : 4 кадра
Идентификатор кодека : V_MPEG4/ISO/AVC
Продолжительность : 1 ч. 6 м.
Битрейт : 6 879 Кбит/сек
Ширина : 1 920 пикселей
Высота : 1 080 пикселей
Соотношение сторон : 16:9
Режим частоты кадров : Переменный
Частота кадров : 50,000 кадров/сек
Частота кадров в оригинале : 25,000 кадров/сек
Стандарт вещания : Component
Цветовое пространство : YUV
Субдискретизация насыщенности : 4:2:0
Битовая глубина : 8 бит
Тип развёртки : Чересстрочная
Метод сохранения типа развёртки : Раздельные поля
Порядок развёртки : Верхнее поле первое
Бит/(Пиксели*Кадры) : 0.066
Размер потока : 3,21 Гбайт (92%)
Default : Да
Forced : Нет
Цветовой диапазон : Limited
Основные цвета : BT.709
Характеристики трансфера : BT.709
Коэффициенты матрицы : BT.709
Аудио #1
Идентификатор : 2
Формат : AC-3
Формат/Информация : Audio Coding 3
Коммерческое название : Dolby Digital
Идентификатор кодека : A_AC3
Продолжительность : 1 ч. 6 м.
Вид битрейта : Постоянный
Битрейт : 384 Кбит/сек
Каналы : 6 каналов
Channel layout : L R C LFE Ls Rs
Частота : 48,0 КГц
Частота кадров : 31,250 кадров/сек (1536 SPF)
Метод сжатия : С потерями
Размер потока : 184 Мбайт (5%)
Язык : Russian
Service kind : Complete Main
Default : Да
Forced : Нет
Аудио #2
Идентификатор : 3
Формат : MPEG Audio
Версия формата : Version 1
Профиль формата : Layer 2
Идентификатор кодека : A_MPEG/L2
Идентификатор кодека/Подсказка : MP2
Продолжительность : 1 ч. 6 м.
Вид битрейта : Постоянный
Битрейт : 192 Кбит/сек
Каналы : 2 канала
Частота : 48,0 КГц
Частота кадров : 41,666 кадра/сек (1152 SPF)
Метод сжатия : С потерями
Размер потока : 91,8 Мбайт (3%)
Язык : Russian
Default : Нет
Forced : Нет
 GOLD TORRENT! DOWNLOAD TRAFFIC DOES NOT CONSIDER! 
Torrent: Registered [ 2021-06-07 22:23 ]   · C2D684247639FF5B56A406BDD1290C321C5D0828

Download .torrent

Download

25 KB

Status: checked
Completed: 0 times
Size: 9.64 GB
Поделиться:
terms.php
[Profile] [PM]
Display posts:    
Reply to topic

Current time is: 20-Jun 18:46

All times are UTC + 3



You cannot post new topics in this forum
You cannot reply to topics in this forum
You cannot edit your posts in this forum
You cannot delete your posts in this forum
You cannot vote in polls in this forum
You cannot attach files in this forum
You can download files in this forum