Till Lindemann - Ich hasse Kinder [Клип] (2021) WEBRip 2160p

Reply to topic
 
Author Message

admin ®

Gender: Male

Longevity: 3 years 8 months

Posts: 12013

Post 03-Jun-2021 01:30

[Quote]

Название: Ich hasse Kinder [КЛИП]
Исполнитель: Till Lindemann
Год: 2021
Жанр: Industrial
Страна: Germany
Продолжительность: 00:05:26
Качество: WEBRip 2160p
Формат/Кодек: MKV/VP9
Video: VP9, 9024 kbps, 3840x2160 (1.778), 25.000 fps
Audio: AAC, 128 kbps, 2 channels, 44.1 kHz

Mediainfo:

Format : Matroska
Format version : Version 4
File size : 355 MiB
Duration : 5 min 25 s
Overall bit rate : 9 153 kb/s
Movie name : Ich hasse Kinder
Encoded date : UTC 2021-06-01 14:54:21
Writing application : mkvmerge v51.0.0 ('I Wish') 64-bit
Writing library : libebml v1.4.0 + libmatroska v1.6.2
ARTIST : Till Lindemann
DATE_RECORDED : 2021
GENRE : Industrial Ural Metal
Video
ID : 1
Format : VP9
Codec ID : V_VP9
Duration : 5 min 25 s
Bit rate : 9 024 kb/s
Width : 3 840 pixels
Height : 2 160 pixels
Display aspect ratio : 16:9
Frame rate mode : Constant
Frame rate : 25.000 FPS
Color space : YUV
Bits/(Pixel*Frame) : 0.044
Stream size : 350 MiB (99%)
Language : English
Default : Yes
Forced : No
Color range : Limited
Color primaries : BT.709
Transfer characteristics : BT.709
Matrix coefficients : BT.709
Audio
ID : 2
Format : AAC LC
Format/Info : Advanced Audio Codec Low Complexity
Codec ID : A_AAC-2
Duration : 5 min 25 s
Bit rate : 128 kb/s
Channel(s) : 2 channels
Channel layout : L R
Sampling rate : 44.1 kHz
Frame rate : 43.066 FPS (1024 SPF)
Compression mode : Lossy
Stream size : 4.97 MiB (1%)
Language : English
Default : Yes
Forced : No

Скриншоты

[Profile] [PM]
Display posts:    
Reply to topic

Current time is: 20-Jun 18:40

All times are UTC + 3



You cannot post new topics in this forum
You cannot reply to topics in this forum
You cannot edit your posts in this forum
You cannot delete your posts in this forum
You cannot vote in polls in this forum
You cannot attach files in this forum
You cannot download files in this forum