Незнайка на Луне [01-12 из 12] (1997-1999) DVDRip-AVC от New-Team

Reply to topic
DL-List and Torrent activity [Update пиров]
Size:  2.18 GB   |    Registered:  26 days   |    Completed:  0 times
Seeders:  49  [  0 KB/s  ]   Leechers:  3  [  0 KB/s  ]   Show peers in full details
 
   
 
 
Author Message

admin ®

Gender: Male

Longevity: 3 years 8 months

Posts: 12013

Post 25-May-2021 05:23

[Quote]

Название мультфильма: Незнайка на Луне
Страна: Россия
Жанр: мультфильм
Год выпуска: 1997-1999
Продолжительность: 02:31:49 (серия ~ 12:30 минут)
Перевод: не требуется
Оригинальная аудиодорожка: русский
Cубтитры: нет
Режиссеры: Юрий Бутырин, Александр Люткевич
Роли озвучивали:
Венера Рахимова, Кристина Орбакайте, Светлана Степченко, Алексей Борзунов, Клара Румянова, Александр Леньков, Артем Карапетян, Михаил Кононов, Светлана Харлап и др.
Описание:
Незнайка находит на улице камень и считает, что этот камень упал с Луны. Он отдаёт его Знайке. На следующий день Знайка заметил, что при действии на камень магнитного поля камень создаёт невесомость. Знайка принял решение сделать ракету и полететь вместе с остальными коротышками на Луну, предварительно устроив спор с астрономом Стекляшкиным, о том, есть ли на Луне жизнь или нет. Перед полётом на Луну Незнайка украл прибор невесомости и чуть не утопил его в реке. За это Знайка отказывается взять его на Луну, но Незнайка решил спрятаться в ракете и полететь несанкционированно. Вместе с собой он берёт Пончика, которого не взяли на Луну из-за того, что он очень тяжёлый, и его якобы не поднимет ракета. Когда Незнайка заснул в ракете, Пончик пытается выбраться из неё, но вместо этого запускает ракету, и они вдвоём с Незнайкой улетают на Луну...- -Исходник: DVD9 R5 + DVD5 R5
Тип релиза: DVDRip-AVC
Контейнер: MKV
Видео: 688->738х570, (1,295:1), 25,000 fps, h264 ~ 1870 kbps, 0.191 bit/pixel
Аудио: 48 kHz, AC3, 2 ch, 192.00 kbps

Список серий

01 - "Загадка Лунного Камня";
02 - "Грандиозный замысел Знайки";
03 - "Незнайка и Пончик летят на Луну"
04 - "Первый день на Луне";
05 - "Звёздочка";
06 - "Дорогие Друзья";
07 - "Акционерное Общество Гигантских Растений"
08 - "Большой Бредлам";
09 - "Незнайка ищет Работу"
10 - "Куда исчезла Ракета";
11 - "Знайка спешит на Помощь";
12 - "Дорога Домой"

MediaInfo

Общее
Полное имя : Neznayka.na.Lune.1997.DVDRip-AVC_[New-team]_by_AVP_Studio.mkv
Формат : Matroska
Версия формата : Version 2
Размер файла : 183 Мбайт
Продолжительность : 12 м.
Общий поток : 2063 Кбит/сек
Дата кодирования : UTC 2014-08-03 01:56:14
Программа кодирования : mkvmerge v6.1.0 ('Old Devil') built on Mar 4 2013 09:10:42
Библиотека кодирования : libebml v1.3.0 + libmatroska v1.4.0
Видео
Идентификатор : 1
Формат : AVC
Формат/Информация : Advanced Video Codec
Профиль формата : High@L4.1
Параметр CABAC формата : Да
Параметр ReFrames формата : 8 кадров
Идентификатор кодека : V_MPEG4/ISO/AVC
Продолжительность : 12 м.
Битрейт : 1870 Кбит/сек
Ширина : 688 пикселей
Высота : 570 пикселей
Соотношение сторон : 1,295
Режим частоты кадров : Постоянный
Частота кадров : 25,000 кадров/сек
Цветовое пространство : YUV
Субдискретизация насыщенности : 4:2:0
Битовая глубина : 8 бит
Тип развёртки : Прогрессивная
Бит/(Пиксели*Кадры) : 0.191
Размер потока : 162 Мбайт (89%)
Библиотека кодирования : x264 core 138 r2356 a1d3d17
Настройки программы : cabac=1 / ref=8 / deblock=1:-2:-1 / analyse=0x3:0x113 / me=umh / subme=10 / psy=1 / psy_rd=1.00:0.05 / mixed_ref=1 / me_range=32 / chroma_me=1 / trellis=2 / 8x8dct=1 / cqm=0 / deadzone=21,11 / fast_pskip=0 / chroma_qp_offset=-3 / threads=6 / lookahead_threads=1 / sliced_threads=0 / nr=0 / decimate=0 / interlaced=0 / bluray_compat=0 / constrained_intra=0 / bframes=8 / b_pyramid=2 / b_adapt=2 / b_bias=0 / direct=3 / weightb=1 / open_gop=0 / weightp=2 / keyint=250 / keyint_min=25 / scenecut=40 / intra_refresh=0 / rc=2pass / mbtree=0 / bitrate=1870 / ratetol=1.0 / qcomp=0.60 / qpmin=0 / qpmax=69 / qpstep=4 / cplxblur=20.0 / qblur=0.5 / ip_ratio=1.40 / pb_ratio=1.30 / aq=1:1.00
Default : Да
Forced : Нет
Аудио
Идентификатор : 2
Формат : AC-3
Формат/Информация : Audio Coding 3
Расширение режима : CM (complete main)
Параметр Endianness формата : Big
Идентификатор кодека : A_AC3
Продолжительность : 12 м.
Вид битрейта : Постоянный
Битрейт : 192 Кбит/сек
Каналы : 2 канала
Расположение каналов : Front: L R
Частота : 48,0 КГц
Битовая глубина : 16 бит
Метод сжатия : С потерями
Размер потока : 17,0 Мбайт (9%)
Default : Да
Forced : Нет

Скриншоты

 GOLD TORRENT! DOWNLOAD TRAFFIC DOES NOT CONSIDER! 
Torrent: Registered [ 2021-05-25 05:23 ]   · 520484122A839C784E086F8C5E5EC2636BB01FA6

Download .torrent

Download

13 KB

Status: checked
Completed: 0 times
Size: 2.18 GB
Поделиться:
terms.php
[Profile] [PM]
Display posts:    
Reply to topic

Current time is: 20-Jun 19:15

All times are UTC + 3



You cannot post new topics in this forum
You cannot reply to topics in this forum
You cannot edit your posts in this forum
You cannot delete your posts in this forum
You cannot vote in polls in this forum
You cannot attach files in this forum
You can download files in this forum