Nightwish: Decades - Live in Buenos Aires (2019) BDRip-HEVC 1080p от RIPS CLUB

Reply to topic
DL-List and Torrent activity [Update пиров]
Size:  15.61 GB   |    Registered:  19 days   |    Completed:  0 times
Seeders:  11  [  0 KB/s  ]   Leechers:  1  [  0 KB/s  ]   Show peers in full details
 
   
 
 
Author Message

admin ®

Gender: Male

Longevity: 3 years 7 months

Posts: 11025

Post 25-Apr-2021 15:27

[Quote]

Оригинальное название: Nightwish: Decades - Live in Buenos Aires
Год выхода: 2019
Жанр: Heavy Metal, Symphonic Metal
Исполнители: Nightwish, Флор Янсен
О концерте: "Decades: Live In Buenos Aires" был снят 19 камерами в ту необыкновенную ночь в Аргентине, когда NIGHTWISH вышли на сцену под зажигательную "End Of All Hope" и отвесили прощальный поклон после непревзойденного эпика "Ghost Love Score". В промежутке между этими вещами был исполнен ряд композиций, принесших группе славу и популярность, в том числе такие выдающиеся треки, как "Wish I Had an Angel", "Sacrament Of Wilderness", "Elvenpath", "Devil & The Deep Dark Ocean", "Dead Boy's Poem" и многие другие.

Трек-лист

01. Swanheart
02. End Of All Hope
03. Wish I Had An Angel
04. 10th Man Down
05. Come Cover Me
06. Gethsemane
07. Élan
08. Sacrament Of Wilderness
09. Deep Silent Complete
10. Dead Boy’s Poem
11. Elvenjig
12. Elvenpath
13. I Want My Tears Back
14. Amaranth
15. The Carpenter
16. The Kinslayer
17. Devil & The Deep Dark Ocean
18. Nemo
19. Slaying The Dreamer
20. The Greatest Show On Earth
21. Ghost Love Score
Страна: США, Германия
Студия: Nuclear Blast
Продолжительность: 02:11:40
Перевод: не требуется
Качество: BDRip-HEVC 1080p
Кодек: HEVC (x265)
Видео: 1920x1080 (16:9), 10,8 Мбит/сек, HEVC (Main10@L.4.1@High) 10 бит
Звук:
Аудио1: LPCM, 6 ch, 4608 Kbps - English, Original
Аудио2: LPCM, 2 ch, 1536 Kbps - English, Original
Субтитры: отсутствуют
Навигация по главам: Есть

Лог (x265 info)

x265 [info]: frame I: 799, Avg QP:17.00 kb/s: 22140.83
x265 [info]: frame P: 39165, Avg QP:18.48 kb/s: 17310.56
x265 [info]: frame B: 149647, Avg QP:21.31 kb/s: 9059.34
x265 [info]: Weighted P-Frames: Y:15.7% UV:13.5%
x265 [info]: Weighted B-Frames: Y:21.1% UV:15.0%
x265 [info]: consecutive B-frames: 6.6% 4.6% 6.6% 34.2% 14.7% 23.1% 3.8% 2.8% 1.1% 0.6% 0.4% 0.6% 0.3% 0.3% 0.4%
x265 [info]: encoded 189611 frames in 170398.61s (1.11 fps), 10818.79 kb/s, Avg QP:20.70

Mediainfo

Общее
Уникальный идентификатор : 299565860362429791227600401144464335328 (0xE15E493C76096D807C01B1611594E1E0)
Полное имя : .Nightwish.Decades.Live.in.Buenos.Aires.2019.mkv
Формат : Matroska
Версия формата : Version 4
Размер файла : 15,6 Гбайт
Продолжительность : 2 ч. 11 м.
Общий поток : 17,0 Мбит/сек
Название фильма : Nightwish.Decades.Live.in.Buenos.Aires.2019
Дата кодирования : UTC 2021-04-23 19:01:40
Программа кодирования : mkvmerge v56.1.0 ('My Friend') 64-bit
Библиотека кодирования : libebml v1.4.2 + libmatroska v1.6.4
Видео
Идентификатор : 1
Формат : HEVC
Формат/Информация : High Efficiency Video Coding
Профиль формата : Main 10@L4.1@High
Идентификатор кодека : V_MPEGH/ISO/HEVC
Продолжительность : 2 ч. 11 м.
Битрейт : 10,8 Мбит/сек
Ширина : 1 920 пикселей
Высота : 1 080 пикселей
Соотношение сторон : 16:9
Режим частоты кадров : Постоянный
Частота кадров : 24,000 кадра/сек
Цветовое пространство : YUV
Субдискретизация насыщенности : 4:2:0
Битовая глубина : 10 бит
Бит/(Пиксели*Кадры) : 0.217
Размер потока : 9,95 Гбайт (64%)
Заголовок : Nightwish - Decades - Live in Buenos Aires / Rip by OldGamer
Библиотека кодирования : x265 3.5+1-ce882936d:[Windows][GCC 10.2.0][64 bit] 10bit
Настройки программы : cpuid=1111039 / frame-threads=3 / numa-pools=8 / wpp / no-pmode / no-pme / no-psnr / no-ssim / log-level=2 / input-csp=1 / input-res=1920x1080 / interlace=0 / total-frames=189611 / level-idc=41 / high-tier=1 / uhd-bd=0 / ref=5 / no-allow-non-conformance / no-repeat-headers / annexb / no-aud / no-hrd / info / hash=0 / no-temporal-layers / open-gop / min-keyint=23 / keyint=240 / gop-lookahead=0 / bframes=14 / b-adapt=2 / b-pyramid / bframe-bias=0 / rc-lookahead=40 / lookahead-slices=0 / scenecut=40 / hist-scenecut=0 / radl=0 / no-splice / no-intra-refresh / ctu=32 / min-cu-size=8 / rect / amp / max-tu-size=32 / tu-inter-depth=4 / tu-intra-depth=4 / limit-tu=1 / rdoq-level=2 / dynamic-rd=0.00 / no-ssim-rd / signhide / no-tskip / nr-intra=0 / nr-inter=0 / no-constrained-intra / no-strong-intra-smoothing / max-merge=5 / limit-refs=3 / no-limit-modes / me=3 / subme=7 / merange=57 / temporal-mvp / no-frame-dup / no-hme / weightp / weightb / no-analyze-src-pics / deblock=-2:-2 / no-sao / no-sao-non-deblock / rd=6 / selective-sao=0 / no-early-skip / rskip / no-fast-intra / no-tskip-fast / no-cu-lossless / b-intra / no-splitrd-skip / rdpenalty=0 / psy-rd=1.00 / psy-rdoq=1.00 / no-rd-refine / no-lossless / cbqpoffs=0 / crqpoffs=0 / rc=crf / crf=20.0 / qcomp=0.60 / qpstep=4 / stats-write=0 / stats-read=0 / vbv-maxrate=50000 / vbv-bufsize=50000 / vbv-init=0.9 / min-vbv-fullness=50.0 / max-vbv-fullness=80.0 / crf-max=0.0 / crf-min=0.0 / ipratio=1.40 / pbratio=1.30 / aq-mode=3 / aq-strength=1.00 / no-cutree / zone-count=1 / zones: / start-frame=187104 / end-frame=189611 / qp=35 / no-strict-cbr / qg-size=32 / no-rc-grain / qpmax=69 / qpmin=0 / no-const-vbv / sar=1 / overscan=0 / videoformat=5 / range=0 / colorprim=2 / transfer=2 / colormatrix=2 / chromaloc=0 / display-window=0 / cll=0,0 / min-luma=0 / max-luma=1023 / log2-max-poc-lsb=8 / vui-timing-info / vui-hrd-info / slices=1 / no-opt-qp-pps / no-opt-ref-list-length-pps / no-multi-pass-opt-rps / scenecut-bias=0.00 / hist-threshold=0.03 / no-opt-cu-delta-qp / no-aq-motion / no-hdr10 / no-hdr10-opt / no-dhdr10-opt / no-idr-recovery-sei / analysis-reuse-level=0 / analysis-save-reuse-level=0 / analysis-load-reuse-level=0 / scale-factor=0 / refine-intra=0 / refine-inter=0 / refine-mv=1 / refine-ctu-distortion=0 / no-limit-sao / ctu-info=0 / no-lowpass-dct / refine-analysis-type=0 / copy-pic=1 / max-ausize-factor=1.0 / no-dynamic-refine / no-single-sei / no-hevc-aq / no-svt / no-field / qp-adaptation-range=1.00 / scenecut-aware-qp=0conformance-window-offsets / right=0 / bottom=0 / decoder-max-rate=0 / no-vbv-live-multi-pass
Язык : English
Default : Да
Forced : Нет
Аудио #1
Идентификатор : 2
Формат : PCM
Настройки формата : Little / Signed
Идентификатор кодека : A_PCM/INT/LIT
Продолжительность : 2 ч. 11 м.
Вид битрейта : Постоянный
Битрейт : 4 608 Кбит/сек
Каналы : 6 каналов
Частота : 48,0 КГц
Частота кадров : 200,000 кадров/сек (240 SPF)
Битовая глубина : 16 бит
Размер потока : 4,24 Гбайт (27%)
Заголовок : LPCM Audio 4608 kbps
Язык : English
Default : Да
Forced : Нет
Аудио #2
Идентификатор : 3
Формат : PCM
Настройки формата : Little / Signed
Идентификатор кодека : A_PCM/INT/LIT
Продолжительность : 2 ч. 11 м.
Вид битрейта : Постоянный
Битрейт : 1 536 Кбит/сек
Каналы : 2 канала
Частота : 48,0 КГц
Частота кадров : 200,000 кадров/сек (240 SPF)
Битовая глубина : 16 бит
Размер потока : 1,41 Гбайт (9%)
Заголовок : LPCM Audio 1536 kbps
Язык : English
Default : Нет
Forced : Нет
Меню
00:00:00.000 : :Swanheart
00:07:29.000 : :End Of All Hope
00:11:29.000 : :Wish I Had An Angel
00:15:48.000 : :10th Man Down
00:21:16.000 : :Come Cover Me
00:27:07.000 : :Gethsemane
00:33:04.000 : :Élan
00:37:36.000 : :Sacrament Of Wilderness
00:42:00.000 : :Deep Silent Complete
00:46:20.000 : :Dead Boy’s Poem
00:53:11.000 : :Elvenjig
00:56:03.416 : :Elvenpath
01:02:15.000 : :I Want My Tears Back
01:07:43.000 : :Amaranth
01:12:09.000 : :The Carpenter
01:18:43.000 : :The Kinslayer
01:23:06.000 : :Devil & The Deep Dark Ocean
01:28:42.000 : :Nemo
01:33:48.000 : :Slaying The Dreamer
01:39:01.000 : :The Greatest Show On Earth
01:56:18.000 : :Ghost Love Score
02:11:40.500 : :The End

Скриншоты

 GOLD TORRENT! DOWNLOAD TRAFFIC DOES NOT CONSIDER! 
Torrent: Registered [ 2021-04-25 15:27 ]   · C193A9DA8535B232D0B2E4F6E1FFEF957AB05827

Download .torrent

Download

79 KB

Status: checked
Completed: 0 times
Size: 15.61 GB
Поделиться:
terms.php
[Profile] [PM]
Display posts:    
Reply to topic

Current time is: 15-May 08:50

All times are UTC + 3



You cannot post new topics in this forum
You cannot reply to topics in this forum
You cannot edit your posts in this forum
You cannot delete your posts in this forum
You cannot vote in polls in this forum
You cannot attach files in this forum
You can download files in this forum