Бегущий по лезвию / Blade Runner (Ридли Скотт / Ridley Scott) [1982, США, Гонконг, Великобритания, фантастика, триллер, драма, UHD BDRemux 2160p] [The Final Cut] Dub + MVO + DVO + 4x AVO + 5x VO + Original (Eng) + Sub (Rus, Eng)

Reply to topic
DL-List and Torrent activity
Size:  66.15 GB   |    Registered:  22 days   |    Completed:  0 times

Seeder not seen: Never

 
   
 
 
Author Message

admin ®

Gender: Male

Longevity: 3 years 1 month

Posts: 10046

Post 09-Oct-2020 06:22

[Quote]

Бегущий по лезвию / Blade Runner
--Страна: США, Гонконг, Великобритания
Студия: Warner Bros. Pictures
Жанр: фантастика, триллер, драма
Год выпуска: 1982
Продолжительность: 01:57:31--Перевод 1: Профессиональный (дублированный) UHD Blu-Ray
Перевод 2: Профессиональный (многоголосый закадровый) Киномания
Перевод 3: Профессиональный (двухголосый закадровый) Tycoon Studio
Перевод 4: Авторский (одноголосый закадровый) А. Гаврилов
Перевод 5: Авторский (одноголосый закадровый) Ю. Живов
Перевод 6: Авторский (одноголосый закадровый) П. Карцев
Перевод 7: Oдноголосый закадровый А. Матвеев
Перевод 8: Oдноголосый закадровый А. Попов
Перевод 9: Oдноголосый закадровый Д. Есарев
Перевод 10: Oдноголосый закадровый В. Завгородний
Перевод 11: Oдноголосый закадровый К. Поздняков
Перевод 12: Oдноголосый закадровый Е. Солодухин
Перевод 13: Авторский (одноголосый закадровый) М. Загот
Субтитры: русские (UHD Blu-Ray, Tycoon Studio), английские (full, SDH)
Оригинальная аудиодорожка: английский--Режиссер: Ридли Скотт / Ridley Scott
В ролях: Харрисон Форд, Рутгер Хауэр, Шон Янг, Эдвард Джеймс Олмос, М. Эммет Уолш, Дэрил Ханна, Уильям Сэндерсон, Брайон Джеймс, Джо Тёркел, Джоанна Кэссиди--Описание: Отставной детектив Рик Декард вновь восстановлен в полиции Лос-Анджелеса для поиска возглавляемой Роем Батти группы киборгов, совершившей побег из космической колонии на Землю.
В полиции считают, что киборги пытаются встретиться с Эндолом Тайреллом, руководителем корпорации, ставящей эксперименты над кибернетическим интеллектом. Рик Декард получает задание выяснить мотивы действий киборгов, а затем уничтожить их.--imdb | kinopoisk | Сэмпл--Тип релиза: UHD BDRemux 2160p [Blade Runner 1982 The Final Cut 2160p UHD Blu-ray HEVC TrueHD 7.1-HDRINVASION]
Контейнер: MKV
Видео: MPEG-H HEVC Video / 49993 kbps / 3840x2160 / 23.976 fps / 16:9 / Main 10 Profile 5.1 High / 4:2:0 / 10 bits / HDR / BT.2020 /
Аудио 1: Russian AC3 / 5.1 / 48 kHz / 640 kbps / 16-bit |Dub, UHD Blu-Ray|
Аудио 2: Russian DTS-HD Master Audio / 5.1 / 48 kHz / 4200 kbps / 24-bit (DTS Core: 5.1 / 48 kHz / 1509 kbps / 24-bit) |MVO, Киномания|
Аудио 3: Russian DTS / 5.1 / 48 kHz / 1510 kbps / 24-bit |DVO, Tycoon Studio|
Аудио 4: Russian DTS-HD Master Audio / 5.1 / 48 kHz / 4205 kbps / 24-bit (DTS Core: 5.1 / 48 kHz / 1509 kbps / 24-bit) |А. Гаврилов|
Аудио 5: Russian DTS-HD Master Audio / 5.1 / 48 kHz / 4214 kbps / 24-bit (DTS Core: 5.1 / 48 kHz / 1509 kbps / 24-bit) |Ю. Живов|
Аудио 6: Russian AC3 / 5.1 / 48 kHz / 448 kbps / 16-bit |П. Карцев|
Аудио 7: Russian DTS-HD Master Audio / 5.1 / 48 kHz / 4209 kbps / 24-bit (DTS Core: 5.1 / 48 kHz / 1509 kbps / 24-bit) |А. Матвеев|
Аудио 8: Russian DTS-HD Master Audio / 5.1 / 48 kHz / 4014 kbps / 24-bit (DTS Core: 5.1 / 48 kHz / 1509 kbps / 24-bit) |А. Попов|
Аудио 9: Russian AC3 / 5.1 / 48 kHz / 448 kbps / 16-bit |Д. Есарев|
Аудио 10: Russian AC3 / 5.1 / 48 kHz / 448 kbps / 16-bit |В. Завгородний|
Аудио 11: Russian AC3 / 2.0 / 48 kHz / 192 kbps / 16-bit |К. Поздняков|
Аудио 12: Russian AC3 / 5.1 / 48 kHz / 448 kbps / 16-bit |Е. Солодухин|
Аудио 13: Russian AC3 / 2.0 / 48 kHz / 192 kbps / 16-bit |М. Загот|
Аудио 14: English Dolby Atmos/TrueHD Audio / 7.1-Atmos / 48 kHz / 4336 kbps / 24-bit |original|
Аудио 15: English AC3 Core: 5.1-EX / 48 kHz / 448 kbps |original|
Аудио 16: English AC3 / 2.0 / 48 kHz / 192 kbps / 16-bit |Commentary with Director Ridley Scott|
Аудио 17: English AC3 / 2.0 / 48 kHz / 192 kbps / 16-bit |Commentary with Hampton Fancher, David Peoples, Michael Deely, Katherine Haber|
Аудио 18: English AC3 / 2.0 / 48 kHz / 192 kbps / 16-bit |Commentary with Syd Mead, Lawrence G. Paull, David L. Snyder, Douglas Trumbull, Richard Yuricich and David Dryerr|
Формат субтитров: softsub [SRT]

MediaInfo

Общее
Уникальный идентификатор                 : 274930874155814328794499586793832195214 (0xCED5C2A427F9DCA7CBAAADEE1400248E)
Полное имя                               : H:\UHD\Бегущий по лезвию.1982.The Final Cut.UHD.Blu-Ray.Remux.2160p.mkv
Формат                                   : Matroska
Версия формата                           : Version 4 / Version 2
Размер файла                             : 66,2 Гбайт
Продолжительность                        : 1 ч. 57 м.
Режим общего битрейта                    : Переменный
Общий поток                              : 80,6 Мбит/сек
Дата кодирования                         : UTC 2018-09-08 05:28:56
Программа кодирования                    : mkvmerge v26.0.0 ('In The Game') 64-bit
Библиотека кодирования                   : libebml v1.3.6 + libmatroska v1.4.9
Attachments                              : poster.jpg
Видео
Идентификатор                            : 1
Формат                                   : HEVC
Формат/Информация                        : High Efficiency Video Coding
Коммерческое название                    : HDR10
Профиль формата                          : Main 10@L5.1@High
Идентификатор кодека                     : V_MPEGH/ISO/HEVC
Продолжительность                        : 1 ч. 57 м.
Битрейт                                  : 50,0 Мбит/сек
Ширина                                   : 3840 пикселей
Высота                                   : 2160 пикселей
Соотношение сторон                       : 16:9
Режим частоты кадров                     : Постоянный
Частота кадров                           : 23,976 (24000/1001) кадра/сек
Цветовое пространство                    : YUV
Субдискретизация насыщенности            : 4:2:0 (Type 2)
Битовая глубина                          : 10 бит
Бит/(Пиксели*Кадры)                      : 0.251
Размер потока                            : 41,0 Гбайт (62%)
Библиотека кодирования                   : ATEME Titan File 3.8.3 (4.8.3.0)
Default                                  : Да
Forced                                   : Нет
Цветовой диапазон                        : Limited
Основные цвета                           : BT.2020
Характеристики трансфера                 : PQ
Коэффициенты матрицы                     : BT.2020 non-constant
MasteringDisplay_ColorPrimaries          : Display P3
MasteringDisplay_Luminance               : min: 0.0050 cd/m2, max: 4000 cd/m2
MaxCLL                                   : 1655 cd/m2
MaxFALL                                  : 117 cd/m2
Аудио #1
Идентификатор                            : 2
Формат                                   : AC-3
Формат/Информация                        : Audio Coding 3
Идентификатор кодека                     : A_AC3
Продолжительность                        : 1 ч. 57 м.
Вид битрейта                             : Постоянный
Битрейт                                  : 640 Кбит/сек
Каналы                                   : 6 каналов
Расположение каналов                     : Front: L C R, Side: L R, LFE
Частота                                  : 48,0 КГц
Частота кадров                           : 31,250 кадров/сек (1536 SPF)
Битовая глубина                          : 16 бит
Метод сжатия                             : С потерями
Размер потока                            : 538 Мбайт (1%)
Заголовок                                : Dub, UHD Blu-Ray
Язык                                     : Russian
ServiceKind/String                       : Complete Main
Default                                  : Да
Forced                                   : Нет
Аудио #2
Идентификатор                            : 3
Формат                                   : DTS
Формат/Информация                        : Digital Theater Systems
Профиль формата                          : MA / Core
Идентификатор кодека                     : A_DTS
Продолжительность                        : 1 ч. 57 м.
Вид битрейта                             : Переменный / Постоянный
Битрейт                                  : 4200 Кбит/сек / 1509 Кбит/сек
Каналы                                   : 6 каналов
Расположение каналов                     : Front: L C R, Side: L R, LFE
Частота                                  : 48,0 КГц
Частота кадров                           : 93,750 кадра/сек (512 SPF)
Битовая глубина                          : 24 бит
Метод сжатия                             : Без потерь / Lossy
Размер потока                            : 3,43 Гбайт (5%)
Заголовок                                : MVO, Киномания
Язык                                     : Russian
Default                                  : Нет
Forced                                   : Нет
Аудио #3
Идентификатор                            : 4
Формат                                   : DTS
Формат/Информация                        : Digital Theater Systems
Идентификатор кодека                     : A_DTS
Продолжительность                        : 1 ч. 57 м.
Вид битрейта                             : Постоянный
Битрейт                                  : 1510 Кбит/сек
Каналы                                   : 6 каналов
Расположение каналов                     : Front: L C R, Side: L R, LFE
Частота                                  : 48,0 КГц
Частота кадров                           : 93,750 кадра/сек (512 SPF)
Битовая глубина                          : 24 бит
Метод сжатия                             : С потерями
Размер потока                            : 1,24 Гбайт (2%)
Заголовок                                : DVO, Tycoon Studio
Язык                                     : Russian
Default                                  : Нет
Forced                                   : Нет
Аудио #4
Идентификатор                            : 5
Формат                                   : DTS
Формат/Информация                        : Digital Theater Systems
Профиль формата                          : MA / Core
Идентификатор кодека                     : A_DTS
Продолжительность                        : 1 ч. 57 м.
Вид битрейта                             : Переменный / Постоянный
Битрейт                                  : 4205 Кбит/сек / 1509 Кбит/сек
Каналы                                   : 6 каналов
Расположение каналов                     : Front: L C R, Side: L R, LFE
Частота                                  : 48,0 КГц
Частота кадров                           : 93,750 кадра/сек (512 SPF)
Битовая глубина                          : 24 бит
Метод сжатия                             : Без потерь / Lossy
Размер потока                            : 3,45 Гбайт (5%)
Заголовок                                : А. Гаврилов
Язык                                     : Russian
Default                                  : Нет
Forced                                   : Нет
Аудио #5
Идентификатор                            : 6
Формат                                   : DTS
Формат/Информация                        : Digital Theater Systems
Профиль формата                          : MA / Core
Идентификатор кодека                     : A_DTS
Продолжительность                        : 1 ч. 57 м.
Вид битрейта                             : Переменный / Постоянный
Битрейт                                  : 4214 Кбит/сек / 1509 Кбит/сек
Каналы                                   : 6 каналов
Расположение каналов                     : Front: L C R, Side: L R, LFE
Частота                                  : 48,0 КГц
Частота кадров                           : 93,750 кадра/сек (512 SPF)
Битовая глубина                          : 24 бит
Метод сжатия                             : Без потерь / Lossy
Размер потока                            : 3,46 Гбайт (5%)
Заголовок                                : Ю. Живов
Язык                                     : Russian
Default                                  : Нет
Forced                                   : Нет
Аудио #6
Идентификатор                            : 7
Формат                                   : AC-3
Формат/Информация                        : Audio Coding 3
Идентификатор кодека                     : A_AC3
Продолжительность                        : 1 ч. 57 м.
Вид битрейта                             : Постоянный
Битрейт                                  : 448 Кбит/сек
Каналы                                   : 6 каналов
Расположение каналов                     : Front: L C R, Side: L R, LFE
Частота                                  : 48,0 КГц
Частота кадров                           : 31,250 кадров/сек (1536 SPF)
Битовая глубина                          : 16 бит
Метод сжатия                             : С потерями
Размер потока                            : 376 Мбайт (1%)
Заголовок                                : П. Карцев
Язык                                     : Russian
ServiceKind/String                       : Complete Main
Default                                  : Нет
Forced                                   : Нет
Аудио #7
Идентификатор                            : 8
Формат                                   : DTS
Формат/Информация                        : Digital Theater Systems
Профиль формата                          : MA / Core
Идентификатор кодека                     : A_DTS
Продолжительность                        : 1 ч. 57 м.
Вид битрейта                             : Переменный / Постоянный
Битрейт                                  : 4209 Кбит/сек / 1509 Кбит/сек
Каналы                                   : 6 каналов
Расположение каналов                     : Front: L C R, Side: L R, LFE
Частота                                  : 48,0 КГц
Частота кадров                           : 93,750 кадра/сек (512 SPF)
Битовая глубина                          : 24 бит
Метод сжатия                             : Без потерь / Lossy
Размер потока                            : 3,46 Гбайт (5%)
Заголовок                                : А. Матвеев
Язык                                     : Russian
Default                                  : Нет
Forced                                   : Нет
Аудио #8
Идентификатор                            : 9
Формат                                   : DTS
Формат/Информация                        : Digital Theater Systems
Профиль формата                          : MA / Core
Идентификатор кодека                     : A_DTS
Продолжительность                        : 1 ч. 57 м.
Вид битрейта                             : Переменный / Постоянный
Битрейт                                  : 4014 Кбит/сек / 768 Кбит/сек
Каналы                                   : 6 каналов
Расположение каналов                     : Front: L C R, Side: L R, LFE
Частота                                  : 48,0 КГц
Частота кадров                           : 93,750 кадра/сек (512 SPF)
Битовая глубина                          : 24 бит
Метод сжатия                             : Без потерь / Lossy
Размер потока                            : 3,30 Гбайт (5%)
Заголовок                                : А. Попов
Язык                                     : Russian
Default                                  : Нет
Forced                                   : Нет
Аудио #9
Идентификатор                            : 10
Формат                                   : AC-3
Формат/Информация                        : Audio Coding 3
Идентификатор кодека                     : A_AC3
Продолжительность                        : 1 ч. 57 м.
Вид битрейта                             : Постоянный
Битрейт                                  : 448 Кбит/сек
Каналы                                   : 6 каналов
Расположение каналов                     : Front: L C R, Side: L R, LFE
Частота                                  : 48,0 КГц
Частота кадров                           : 31,250 кадров/сек (1536 SPF)
Битовая глубина                          : 16 бит
Метод сжатия                             : С потерями
Размер потока                            : 377 Мбайт (1%)
Заголовок                                : Д. Есарев
Язык                                     : Russian
ServiceKind/String                       : Complete Main
Default                                  : Нет
Forced                                   : Нет
Аудио #10
Идентификатор                            : 11
Формат                                   : AC-3
Формат/Информация                        : Audio Coding 3
Идентификатор кодека                     : A_AC3
Продолжительность                        : 1 ч. 57 м.
Вид битрейта                             : Постоянный
Битрейт                                  : 448 Кбит/сек
Каналы                                   : 6 каналов
Расположение каналов                     : Front: L C R, Side: L R, LFE
Частота                                  : 48,0 КГц
Частота кадров                           : 31,250 кадров/сек (1536 SPF)
Битовая глубина                          : 16 бит
Метод сжатия                             : С потерями
Размер потока                            : 375 Мбайт (1%)
Заголовок                                : В. Завгородний
Язык                                     : Russian
ServiceKind/String                       : Complete Main
Default                                  : Нет
Forced                                   : Нет
Аудио #11
Идентификатор                            : 12
Формат                                   : AC-3
Формат/Информация                        : Audio Coding 3
Идентификатор кодека                     : A_AC3
Продолжительность                        : 1 ч. 57 м.
Вид битрейта                             : Постоянный
Битрейт                                  : 192 Кбит/сек
Каналы                                   : 2 канала
Расположение каналов                     : Front: L R
Частота                                  : 48,0 КГц
Частота кадров                           : 31,250 кадров/сек (1536 SPF)
Битовая глубина                          : 16 бит
Метод сжатия                             : С потерями
Размер потока                            : 161 Мбайт (0%)
Заголовок                                : К. Поздняков
Язык                                     : Russian
ServiceKind/String                       : Complete Main
Default                                  : Нет
Forced                                   : Нет
Аудио #12
Идентификатор                            : 13
Формат                                   : AC-3
Формат/Информация                        : Audio Coding 3
Идентификатор кодека                     : A_AC3
Продолжительность                        : 1 ч. 57 м.
Вид битрейта                             : Постоянный
Битрейт                                  : 448 Кбит/сек
Каналы                                   : 6 каналов
Расположение каналов                     : Front: L C R, Side: L R, LFE
Частота                                  : 48,0 КГц
Частота кадров                           : 31,250 кадров/сек (1536 SPF)
Битовая глубина                          : 16 бит
Метод сжатия                             : С потерями
Размер потока                            : 377 Мбайт (1%)
Заголовок                                : Е. Солодухин
Язык                                     : Russian
ServiceKind/String                       : Complete Main
Default                                  : Нет
Forced                                   : Нет
Аудио #13
Идентификатор                            : 14
Формат                                   : AC-3
Формат/Информация                        : Audio Coding 3
Идентификатор кодека                     : A_AC3
Продолжительность                        : 1 ч. 57 м.
Вид битрейта                             : Постоянный
Битрейт                                  : 192 Кбит/сек
Каналы                                   : 2 канала
Расположение каналов                     : Front: L R
Частота                                  : 48,0 КГц
Частота кадров                           : 31,250 кадров/сек (1536 SPF)
Битовая глубина                          : 16 бит
Метод сжатия                             : С потерями
Размер потока                            : 161 Мбайт (0%)
Заголовок                                : М. Загот
Язык                                     : Russian
ServiceKind/String                       : Complete Main
Default                                  : Нет
Forced                                   : Нет
Аудио #14
Идентификатор                            : 15
Формат                                   : TrueHD
Профиль формата                          : TrueHD+Atmos / TrueHD
Идентификатор кодека                     : A_TRUEHD
Продолжительность                        : 1 ч. 57 м.
Вид битрейта                             : Переменный
Битрейт                                  : 4336 Кбит/сек
Максимальный битрейт                     : 7305 Кбит/сек
Каналы                                   : Object Based / 8 каналов
Расположение каналов                     : Object Based / Front: L C R, Side: L R, Back: L R, LFE
Частота                                  :  / 48,0 КГц
Частота кадров                           : 1200,000 кадров/сек (40 SPF)
Метод сжатия                             : Без потерь
Размер потока                            : 3,56 Гбайт (5%)
Язык                                     : English
Default                                  : Нет
Forced                                   : Нет
Аудио #15
Идентификатор                            : 16
Формат                                   : AC-3
Формат/Информация                        : Audio Coding 3
Идентификатор кодека                     : A_AC3
Продолжительность                        : 1 ч. 57 м.
Вид битрейта                             : Постоянный
Битрейт                                  : 448 Кбит/сек
Каналы                                   : 6 каналов
Расположение каналов                     : Front: L C R, Side: L R, LFE
Частота                                  : 48,0 КГц
Частота кадров                           : 31,250 кадров/сек (1536 SPF)
Битовая глубина                          : 16 бит
Метод сжатия                             : С потерями
Размер потока                            : 377 Мбайт (1%)
Язык                                     : English
ServiceKind/String                       : Complete Main
Default                                  : Нет
Forced                                   : Нет
Аудио #16
Идентификатор                            : 17
Формат                                   : AC-3
Формат/Информация                        : Audio Coding 3
Идентификатор кодека                     : A_AC3
Продолжительность                        : 1 ч. 57 м.
Вид битрейта                             : Постоянный
Битрейт                                  : 192 Кбит/сек
Каналы                                   : 2 канала
Расположение каналов                     : Front: L R
Частота                                  : 48,0 КГц
Частота кадров                           : 31,250 кадров/сек (1536 SPF)
Битовая глубина                          : 16 бит
Метод сжатия                             : С потерями
Размер потока                            : 161 Мбайт (0%)
Заголовок                                : Commentary with Director Ridley Scott
Язык                                     : English
ServiceKind/String                       : Complete Main
Default                                  : Нет
Forced                                   : Нет
Аудио #17
Идентификатор                            : 18
Формат                                   : AC-3
Формат/Информация                        : Audio Coding 3
Идентификатор кодека                     : A_AC3
Продолжительность                        : 1 ч. 57 м.
Вид битрейта                             : Постоянный
Битрейт                                  : 192 Кбит/сек
Каналы                                   : 2 канала
Расположение каналов                     : Front: L R
Частота                                  : 48,0 КГц
Частота кадров                           : 31,250 кадров/сек (1536 SPF)
Битовая глубина                          : 16 бит
Метод сжатия                             : С потерями
Размер потока                            : 161 Мбайт (0%)
Заголовок                                : Commentary with Hampton Fancher, David Peoples, Michael Deely, Katherine Haber
Язык                                     : English
ServiceKind/String                       : Complete Main
Default                                  : Нет
Forced                                   : Нет
Аудио #18
Идентификатор                            : 19
Формат                                   : AC-3
Формат/Информация                        : Audio Coding 3
Идентификатор кодека                     : A_AC3
Продолжительность                        : 1 ч. 57 м.
Вид битрейта                             : Постоянный
Битрейт                                  : 192 Кбит/сек
Каналы                                   : 2 канала
Расположение каналов                     : Front: L R
Частота                                  : 48,0 КГц
Частота кадров                           : 31,250 кадров/сек (1536 SPF)
Битовая глубина                          : 16 бит
Метод сжатия                             : С потерями
Размер потока                            : 161 Мбайт (0%)
Заголовок                                : Commentary with Syd Mead, Lawrence G. Paull, David L. Snyder, Douglas Trumbull, Richard Yuricich and David Dryer
Язык                                     : English
ServiceKind/String                       : Complete Main
Default                                  : Нет
Forced                                   : Нет
Текст #1
Идентификатор                            : 20
Формат                                   : UTF-8
Идентификатор кодека                     : S_TEXT/UTF8
Идентификатор кодека/Информация          : UTF-8 Plain Text
Продолжительность                        : 1 ч. 56 м.
Битрейт                                  : 47 бит/сек
ElementCount                             : 844
Размер потока                            : 40,9 Кбайт (0%)
Заголовок                                : UHD Blu-Ray
Язык                                     : Russian
Default                                  : Нет
Forced                                   : Нет
Текст #2
Идентификатор                            : 21
Формат                                   : UTF-8
Идентификатор кодека                     : S_TEXT/UTF8
Идентификатор кодека/Информация          : UTF-8 Plain Text
Продолжительность                        : 1 ч. 51 м.
Битрейт                                  : 46 бит/сек
ElementCount                             : 791
Размер потока                            : 38,4 Кбайт (0%)
Заголовок                                : Tycoon Studio
Язык                                     : Russian
Default                                  : Нет
Forced                                   : Нет
Текст #3
Идентификатор                            : 22
Формат                                   : UTF-8
Идентификатор кодека                     : S_TEXT/UTF8
Идентификатор кодека/Информация          : UTF-8 Plain Text
Продолжительность                        : 1 ч. 47 м.
Битрейт                                  : 28 бит/сек
ElementCount                             : 808
Размер потока                            : 22,8 Кбайт (0%)
Заголовок                                : full
Язык                                     : English
Default                                  : Нет
Forced                                   : Нет
Текст #4
Идентификатор                            : 23
Формат                                   : UTF-8
Идентификатор кодека                     : S_TEXT/UTF8
Идентификатор кодека/Информация          : UTF-8 Plain Text
Продолжительность                        : 1 ч. 52 м.
Битрейт                                  : 30 бит/сек
ElementCount                             : 895
Размер потока                            : 25,3 Кбайт (0%)
Заголовок                                : SDH
Язык                                     : English
Default                                  : Нет
Forced                                   : Нет
Меню
00:00:00.000                             : en:Credits and Forward
00:02:58.178                             : en:Eye on the City
00:04:31.980                             : en:Leon's Emotional Response
00:07:26.112                             : en:Street Scene; Interrupted Sushi
00:11:18.261                             : en:The Old Blade Runner Magic
00:12:58.569                             : en:The Replicants in Question
00:16:58.184                             : en:Rachael; the Voight-Kampff Test
00:22:38.816                             : en:Leon's Apartment
00:25:04.878                             : en:Chew's Visitors
00:27:58.343                             : en:If Only You Could See...
00:30:21.486                             : en:A Visitor with Someone Else's Memories
00:36:19.177                             : en:Pris Meets Sebastian
00:41:30.321                             : en:Deckard's Dream
00:42:24.000                             : en:Computer Photo Scan
00:45:56.337                             : en:Manufactured Skin
00:48:44.463                             : en:Miss Salome's Dressing Room
00:55:18.899                             : en:Pursuing Zhora
00:57:27.277                             : en:Retirement...Witnessed
00:59:44.998                             : en:How Many to Go?
01:01:49.414                             : en:Wake Up. Time to Die.
01:03:17.002                             : en:I Am the Business. I Owe You One.
01:07:44.394                             : en:The Real Thing?
01:12:39.522                             : en:There's Only Two of Us Now.
01:16:13.527                             : en:We Need You, Sebastian.
01:20:12.474                             : en:The Right Moves
01:22:34.533                             : en:The Prodigal Son Brings Death
01:27:07.514                             : en:No Way to Treat a Friend
01:28:45.237                             : en:Death Among the Menagerie
01:34:02.220                             : en:Proud of Yourself, Little Man?
01:36:54.308                             : en:Wounded Animals
01:41:12.316                             : en:The Building Ledge
01:42:37.276                             : en:The Roof
01:44:31.807                             : en:To Live in Fear
01:45:56.267                             : en:Like Tears in Rain. But Then Again, Who Does?
01:49:04.496                             : en:Souvenir of Dreams
01:52:21.735                             : en:End Credits

Скриншоты


 GOLD TORRENT! DOWNLOAD TRAFFIC DOES NOT CONSIDER! 
Torrent: Registered [ 2020-10-09 06:22 ]   · 9D5615A2F593EA6CEFEA6E2DE17A5509A92D2F41

Download .torrent

Download

166 KB

Status: checked
Completed: 0 times
Size: 66.15 GB
Поделиться:
terms.php
[Profile] [PM]
Display posts:    
Reply to topic

Current time is: 31-Oct 15:35

All times are UTC + 3



You cannot post new topics in this forum
You cannot reply to topics in this forum
You cannot edit your posts in this forum
You cannot delete your posts in this forum
You cannot vote in polls in this forum
You cannot attach files in this forum
You can download files in this forum