Герой СамСам / SamSam (Танги де Кермель / Tanguy de Kermel) [2019, Франция, мультфильм, WEB-DLRip] Dub (iTunes)

Reply to topic
DL-List and Torrent activity
Size:  1.37 GB   |    Registered:  12 days   |    Completed:  0 times

Seeder not seen: Never

 
   
 
 
Author Message

KSA ®

Gender: Male

Longevity: 2 years 3 months

Posts: 64

Location: Украина

Post 28-Jun-2020 15:10

[Quote]

Герой СамСам / SamSam
Страна: Франция
Жанр: мультфильм
Год выпуска: 2019
Продолжительность: 01:17:44-Перевод: Профессиональный (дублированный) | iTunes
Субтитры: нет
Оригинальная аудиодорожка: нет-Режиссер:
Танги де Кермель / Tanguy de Kermel-Роли озвучивали: Исаак Лобе-Лебель, Лиор Шабба, Жереми Прево, Себастьян Дежу, Léopold Vom Dorp, Victoire Pauwels, Léovanie Raud, Дамиен Буассо, Лоран Морель, Мари-Южени Марешаль-Описание: СамПланета в опасности! На родную обитель знаменитого СамСама напали Мрачуны - инопланетные жуки, которые распространяют по всей Вселенной... грусть. Чтобы победить полчища Мрачунов, герою на помощь придет его давняя подруга по переписке с соседней планеты.- -Качество видео: WEB-DLRip
Формат видео: AVI
Видео: 720x304 (2.37:1), 24.000 fps, XviD build 73 ~2125 kbps avg, 0.40 bit/pixel
Аудио: 48 kHz, AC3 Dolby Digital, 3/2 (L,C,R,l,r) + LFE ch, ~384 kbps-Сэмпл-

MediaInfo


Код:
Формат : AVI
Формат/Информация : Audio Video Interleave
Размер файла : 1,37 Гбайт
Продолжительность : 1 ч. 17 м.
Общий поток : 2 519 Кбит/сек
Название фильма : Герой СамСам_2019_WEB-DLRip
Программа кодирования : VirtualDubMod 1.5.10.3 | www.virtualdub-fr.org || (build 2550/release)
Авторское право : порошковВидео
Идентификатор : 0
Формат : MPEG-4 Visual
Профиль формата : Advanced Simple@L5
Настройки формата : BVOP1 / Custom Matrix
Параметр BVOP формата : 1
Параметр QPel формата : Нет
Параметр GMC формата : Без точки перехода
Параметр матрицы формата : Выборочная
Идентификатор кодека : XVID
Идентификатор кодека/Подсказка : XviD
Продолжительность : 1 ч. 17 м.
Битрейт : 2 126 Кбит/сек
Ширина : 720 пикселей
Высота : 304 пикселя
Соотношение сторон : 2,35:1
Частота кадров : 24,000 кадра/сек
Цветовое пространство : YUV
Субдискретизация насыщенности : 4:2:0
Битовая глубина : 8 бит
Тип развёртки : Прогрессивная
Метод сжатия : С потерями
Бит/(Пиксели*Кадры) : 0.405
Размер потока : 1,15 Гбайт (84%)
Библиотека кодирования : XviD 73Аудио
Идентификатор : 1
Формат : AC-3
Формат/Информация : Audio Coding 3
Коммерческое название : Dolby Digital
Идентификатор кодека : 2000
Продолжительность : 1 ч. 17 м.
Вид битрейта : Постоянный
Битрейт : 384 Кбит/сек
Каналы : 6 каналов
Channel layout : L R C LFE Ls Rs
Частота : 48,0 КГц
Частота кадров : 31,250 кадров/сек (1536 SPF)
Метод сжатия : С потерями
Размер потока : 214 Мбайт (15%)
Выравнивание : Разделение по промежуткам
Продолжительность промежутка : 42 мс. (1,00 видеокадр)
Время предзагрузки промежутка : 500 мс.
Service kind : Complete Main

Скриншоты


Torrent: Registered [ 2020-06-28 15:10 ]   · 62EE351DA5420A13102BF970907E3E3557BD3ECB

Download .torrent

Download

14 KB

Status: checked
Completed: 0 times
Size: 1.37 GB
Поделиться:
terms.php
[Profile] [PM]
Display posts:    
Reply to topic

Current time is: 10-Jul 19:25

All times are UTC + 3



You cannot post new topics in this forum
You cannot reply to topics in this forum
You cannot edit your posts in this forum
You cannot delete your posts in this forum
You cannot vote in polls in this forum
You cannot attach files in this forum
You can download files in this forum