Звёздные войны: Скайуокер. Восход / Star Wars: Episode IX - The Rise of Skywalker (Джей Джей Абрамс / J.J. Abrams) [2019, США, фантастика, фэнтези, боевик, приключения, BDRip 1080p] Dub (iTunes) + Sub Rus, Eng + Original Eng

Reply to topic
DL-List and Torrent activity
Size:  16.28 GB   |    Registered:  16 days   |    Completed:  0 times
Seeders:  2  [  0 KB/s  ]   Show peers in full details
 
   
 
 
Author Message

admin ®

Gender: Male

Longevity: 2 years 6 months

Posts: 15917

Post 23-Mar-2020 17:21

[Quote]

Звёздные войны: Скайуокер. ВосходStar Wars: Episode IX - The Rise of Skywalker«Every Generation Has A Legend»

Страна: США
Студия: Lucasfilm, Bad Robot, Digital Makeup Group
Жанр: фантастика, фэнтези, боевик, приключения
Год выпуска: 2019
Продолжительность: 02:21:53
Перевод: Профессиональный (дублированный) iTunes
Субтитры: русские(форсированные), русские (полные), английские отключаемые srt
Оригинальная аудиодорожка: английский
Режиссер: Джей Джей Абрамс / J.J. Abrams
В ролях: Дэйзи Ридли, Адам Драйвер, Кэрри Фишер, Марк Хэмилл, Джон Бойега, Оскар Айзек, Энтони Дэниелс, Наоми Аки, Донал Глисон, Ричард Э. Грант
Описание: Фильм завершает невероятную историю семьи Скайуокеров, длящуюся уже более сорока лет, и обещает дать ответы на все загадки из предыдущих серий. Зрителя ожидают старые и новые герои, уникальные миры, увлекательные путешествия на край Галактики и грандиозный финал фантастической саги.
Доп. информация:
Релиз группы:
Сохранены оригинальные главы как на Bluray
Тип релиза: BDRip 1080p | Star.Wars.Episode.IX.2019.BluRay.REMUX.1080p|IVTRACKER|
Контейнер: MKV
Видео: 1920x804 (2:40:1), 23,976 fps, 14.2 Mbps, 0.384 bit/pixe
Аудио: 48 kHz, AC3 Dolby Digital, 3/2 (L,C,R,l,r) + LFE ch, ~384.00 kbps avg DUB
Аудио 2: 48 kHz, DTS, 3/2 (L,C,R,l,r) + LFE ch, ~1509.00 kbps avg ENG
Формат субтитров: softsub (SRT)

MediaInfo

General
Unique ID : 289075527237999441365862071848321624928 (0xD979EBE181E1D0730989F7B34C472B60)
Complete name : D:\Мои рипы\Звездные войны Скайуокер 1080р\Star Wars Episode IX - The Rise of Skywalker BDRip 1080p by_IVAN@190282.mkv
Format : Matroska
Format version : Version 4 / Version 2
File size : 16.3 GiB
Duration : 2h 21mn
Overall bit rate : 16.4 Mbps
Movie name : Star Wars Episode IX - The Rise of Skywalker BDRip 1080p by_IVAN@190282
Encoded date : UTC 2020-03-23 17:39:57
Writing application : mkvmerge v40.0.0 ('Old Town Road + Pony') 64-bit
Writing library : libebml v1.3.9 + libmatroska v1.5.2
DURATION : 02:08:13.126000000
NUMBER_OF_FRAMES : 1531
NUMBER_OF_BYTES : 40762
_STATISTICS_WRITING_APP : mkvmerge v40.0.0 ('Old Town Road + Pony') 64-bit
_STATISTICS_WRITING_DATE_UTC : 2020-03-23 17:39:57
_STATISTICS_TAGS : BPS DURATION NUMBER_OF_FRAMES NUMBER_OF_BYTES
Attachment : Yes
Video
ID : 1
Format : AVC
Format/Info : Advanced Video Codec
Format profile : High@L4.1
Format settings, CABAC : Yes
Format settings, ReFrames : 4 frames
Codec ID : V_MPEG4/ISO/AVC
Duration : 2h 21mn
Bit rate : 14.2 Mbps
Width : 1 920 pixels
Height : 804 pixels
Display aspect ratio : 2.40:1
Frame rate mode : Constant
Frame rate : 23.976 fps
Color space : YUV
Chroma subsampling : 4:2:0
Bit depth : 8 bits
Scan type : Progressive
Bits/(Pixel*Frame) : 0.384
Stream size : 14.1 GiB (86%)
Title : Star Wars Episode IX - The Rise of Skywalker BDRip.1080p by_IVAN@190282
Writing library : x264 core 157 r2867+150 7e91e0e t_mod_Custom_2 [8-bit@all X86_64]
Encoding settings : cabac=1 / ref=4 / deblock=1:-3:-3 / analyse=0x3:0x133 / me=umh / subme=11 / psy=1 / fade_compensate=0.00 / psy_rd=0.90:0.10 / mixed_ref=1 / me_range=64 / chroma_me=1 / trellis=2 / 8x8dct=1 / cqm=0 / deadzone=21,11 / fast_pskip=0 / chroma_qp_offset=-4 / threads=25 / lookahead_threads=4 / sliced_threads=0 / nr=0 / decimate=1 / interlaced=0 / bluray_compat=0 / constrained_intra=0 / fgo=0 / bframes=8 / b_pyramid=2 / b_adapt=2 / b_bias=0 / direct=3 / weightb=1 / open_gop=0 / weightp=2 / keyint=250 / keyint_min=23 / scenecut=40 / intra_refresh=0 / rc_lookahead=60 / rc=crf / mbtree=0 / crf=18.0000 / qcomp=0.70 / qpmin=0:0:0 / qpmax=69:69:69 / qpstep=4 / vbv_maxrate=35000 / vbv_bufsize=35000 / crf_max=0.0 / nal_hrd=none / filler=0 / ip_ratio=1.40 / pb_ratio=1.30 / aq=3:1.00 / aq-sensitivity=10.00 / aq-factor=1.00:1.00:1.00 / aq2=0 / aq3=0
Default : Yes
Forced : No
Audio #1
ID : 2
Format : AC-3
Format/Info : Audio Coding 3
Mode extension : CM (complete main)
Format settings, Endianness : Big
Codec ID : A_AC3
Duration : 2h 21mn
Bit rate mode : Constant
Bit rate : 384 Kbps
Channel(s) : 6 channels
Channel positions : Front: L C R, Side: L R, LFE
Sampling rate : 48.0 KHz
Bit depth : 16 bits
Compression mode : Lossy
Stream size : 390 MiB (2%)
Title : Dub iTunes
Language : Russian
Default : Yes
Forced : No
Audio #2
ID : 3
Format : DTS
Format/Info : Digital Theater Systems
Mode : 16
Format settings, Endianness : Big
Codec ID : A_DTS
Duration : 2h 21mn
Bit rate mode : Constant
Bit rate : 1 509 Kbps
Channel(s) : 6 channels
Channel positions : Front: L C R, Side: L R, LFE
Sampling rate : 48.0 KHz
Bit depth : 16 bits
Compression mode : Lossy
Stream size : 1.50 GiB (9%)
Title : Eng
Language : English
Default : No
Forced : No
Text #1
ID : 4
Format : UTF-8
Codec ID : S_TEXT/UTF8
Codec ID/Info : UTF-8 Plain Text
Title : Rus forced
Language : Russian
Default : Yes
Forced : No
Text #2
ID : 5
Format : UTF-8
Codec ID : S_TEXT/UTF8
Codec ID/Info : UTF-8 Plain Text
Title : Rus full
Language : Russian
Default : No
Forced : No
Text #3
ID : 6
Format : UTF-8
Codec ID : S_TEXT/UTF8
Codec ID/Info : UTF-8 Plain Text
Title : Eng SDH
Language : English
Default : No
Forced : No
Menu
00:00:00.000 : :Chapter 1
00:00:09.217 : :Chapter 2
00:03:47.435 : :Chapter 3
00:03:47.936 : :Chapter 4
00:06:42.485 : :Chapter 5
00:08:26.214 : :Chapter 6
00:10:04.896 : :Chapter 7
00:12:48.267 : :Chapter 8
00:13:54.125 : :Chapter 9
00:15:17.541 : :Chapter 10
00:17:13.282 : :Chapter 11
00:19:24.621 : :Chapter 12
00:21:28.704 : :Chapter 13
00:25:27.818 : :Chapter 14
00:27:15.008 : :Chapter 15
00:30:41.673 : :Chapter 16
00:35:49.188 : :Chapter 17
00:41:37.787 : :Chapter 18
00:43:15.384 : :Chapter 19
00:45:28.475 : :Chapter 20
00:48:24.401 : :Chapter 21
00:54:37.691 : :Chapter 22
00:58:49.317 : :Chapter 23
01:02:54.896 : :Chapter 24
01:06:23.104 : :Chapter 25
01:09:54.732 : :Chapter 26
01:13:07.508 : :Chapter 27
01:18:23.740 : :Chapter 28
01:23:41.349 : :Chapter 29
01:27:02.675 : :Chapter 30
01:30:23.251 : :Chapter 31
01:35:00.945 : :Chapter 32
01:38:48.005 : :Chapter 33
01:40:35.446 : :Chapter 34
01:43:03.260 : :Chapter 35
01:45:27.988 : :Chapter 36
01:48:47.813 : :Chapter 37
01:53:27.759 : :Chapter 38
01:55:30.882 : :Chapter 39
01:59:02.885 : :Chapter 40
02:01:37.874 : :Chapter 41
02:05:20.554 : :Chapter 42
02:09:42.358 : :Chapter 43
02:12:25.354 : :Chapter 44

Скриншот с названием фильма

Скриншоты

Убедительная просьба пожалуйста кто скачал не бросайте раздачу!!!Рип будет перезалит после выхода более качественного звука!
 GOLD TORRENT! DOWNLOAD TRAFFIC DOES NOT CONSIDER! 
Torrent: Registered [ 2020-03-23 22:59 ]   · C6F2371E5D38D8AF35E7AC4EFBA21579E32B8552

Download .torrent

Download

41 KB

Status: checked
Completed: 0 times
Size: 16.28 GB
Поделиться:
terms.php
[Profile] [PM]
Display posts:    
Reply to topic

Current time is: 09-Apr 06:02

All times are UTC + 3



You cannot post new topics in this forum
You cannot reply to topics in this forum
You cannot edit your posts in this forum
You cannot delete your posts in this forum
You cannot vote in polls in this forum
You cannot attach files in this forum
You can download files in this forum