Ночь в осаде / Trauma Center (2019) WEB-DL 1080p | Расширенная версия | iTunes

Reply to topic
DL-List and Torrent activity
Size:  3.66 GB   |    Registered:  6 months 28 days   |    Completed:  0 times
Seeders:  374  [  0 KB/s  ]   Leechers:  7  [  0 KB/s  ]   Show peers in full details
 
   
 
 
Author Message

admin ®

Gender: Male

Longevity: 2 years 10 months

Posts: 9990

Post 10-Jan-2020 22:16

[Quote]

Информация о фильме
Название: Ночь в осаде
Оригинальное название: Trauma Center
«The enemy is closer than you think»
Год выхода: 2019
Жанр: Боевик, триллер
Режиссер: Мэтт Эскандари
В ролях: Брюс Уиллис, Никки Уилан, Стив Гуттенберг, Лорин Кент, Хезер Йохансен, Линн Гилмартин, Тексас Бэттл, Тито Ортис, Катрин Дэвис, Тайлер Джон Олсон
О фильме:
Избитая неизвестными испуганная женщина оказывается ночью одна в больничном изоляторе травматологического центра. Она раненая и обессилена, и теперь ей придётся найти в себе силы сбежать от двух киллеров, которые пришли за важной уликой, указывающей на их причастие к громким криминальным делам. К счастью, ветеран полиции получает задание защищать женщину.

Страна: США
Студия: BondIt, Buffalo 8 Productions, Emmett/Furla Films, Pimienta
Продолжительность: 01:38:00
Перевод: Профессиональный (полное дублирование) | iTunes
• Расширенная версия длиннее театральной на ~11 минут. Полный дублированный перевод.
Файл
Качество: WEB-DL 1080p
Формат: MKV
Кодек: MPEG-4 AVC
Видео: 1920x804 (2.40:1), 24 fps, MPEG-4 AVC ~ 4466 Кbps avg, 0.121 bit/pixel
Аудио: AC3, 48 kHz, 6 ch, ~384.00 kbps avg | русский | iTunes
Аудио: AC3, 48 kHz, 6 ch, ~384.00 kbps avg | английский | Оригинал
Субтитры: Русские (Full-length)

Инфо-файл

Общее
Уникальный идентификатор : 246388822145711034725103971519660027726 (0xB95CC2D463243E8ABF406DC7868BEF4E)
Полное имя : TRAUMA_CNTR_EC_2019_WEB-DL_2019-BLUEBIRD.mkv
Формат : Matroska
Версия формата : Version 4
Размер файла : 3,66 Гбайт
Продолжительность : 1 ч. 38 м.
Общий поток : 5340 Кбит/сек
Название фильма : TRAUMA_CNTR_EC_2019_WEB-DL_2019-BLUEBIRD
Дата кодирования : UTC 2020-01-09 19:21:19
Программа кодирования : mkvmerge v6.9.1 ('Blue Panther') 32bit built on Apr 18 2014 18:15:44
Библиотека кодирования : libebml v1.3.0 + libmatroska v1.4.1
Обложка : Yes
Attachments : cover.png
Видео
Идентификатор : 1
Формат : AVC
Формат/Информация : Advanced Video Codec
Профиль формата : High@L4
Настройки формата : CABAC / 5 Ref Frames
Параметр CABAC формата : Да
Параметр RefFrames формата : 5 кадров
Идентификатор кодека : V_MPEG4/ISO/AVC
Продолжительность : 1 ч. 38 м.
Битрейт : 4466 Кбит/сек
Ширина : 1920 пикселей
Высота : 804 пикселя
Соотношение сторон : 2,40:1
Режим частоты кадров : Постоянный
Частота кадров : 24,000 кадра/сек
Цветовое пространство : YUV
Субдискретизация насыщенности : 4:2:0
Битовая глубина : 8 бит
Тип развёртки : Прогрессивная
Бит/(Пиксели*Кадры) : 0.121
Размер потока : 3,06 Гбайт (84%)
Заголовок : TRAUMA_CNTR_EC_2019_WEB-DL_2019-BLUEBIRD
Язык : English
Default : Да
Forced : Нет
Цветовой диапазон : Limited
Основные цвета : BT.709
Характеристики трансфера : BT.709
Коэффициенты матрицы : BT.709
Аудио #1
Идентификатор : 2
Формат : AC-3
Формат/Информация : Audio Coding 3
Коммерческое название : Dolby Digital
Идентификатор кодека : A_AC3
Продолжительность : 1 ч. 38 м.
Вид битрейта : Постоянный
Битрейт : 384 Кбит/сек
Каналы : 6 каналов
ChannelLayout : L R C LFE Ls Rs
Частота : 48,0 КГц
Частота кадров : 31,250 кадров/сек (1536 SPF)
Метод сжатия : С потерями
Размер потока : 269 Мбайт (7%)
Заголовок : [DUB] DD 5.1 @ 384 kbps (iTunes)
Язык : Russian
Default : Да
Forced : Нет
Аудио #2
Идентификатор : 3
Формат : AC-3
Формат/Информация : Audio Coding 3
Коммерческое название : Dolby Digital
Идентификатор кодека : A_AC3
Продолжительность : 1 ч. 38 м.
Вид битрейта : Постоянный
Битрейт : 384 Кбит/сек
Каналы : 6 каналов
ChannelLayout : L R C LFE Ls Rs
Частота : 48,0 КГц
Частота кадров : 31,250 кадров/сек (1536 SPF)
Метод сжатия : С потерями
Размер потока : 269 Мбайт (7%)
Заголовок : [ORIGINAL] DD 5.1 @ 384 kbps (iTunes)
Язык : English
Default : Нет
Forced : Нет
Текст
Идентификатор : 4
Формат : UTF-8
Идентификатор кодека : S_TEXT/UTF8
Идентификатор кодека/Информация : UTF-8 Plain Text
Заголовок : Full-length
Язык : Russian
Default : Нет
Forced : Нет
Меню
00:00:00.000 : en:Глава 1
00:02:50.333 : en:Глава 2
00:07:52.124 : en:Глава 3
00:14:23.374 : en:Глава 4
00:18:44.249 : en:Глава 5
00:24:05.290 : en:Глава 6
00:29:59.081 : en:Глава 7
00:39:46.872 : en:Глава 8
00:48:42.705 : en:Глава 9
00:57:17.871 : en:Глава 10
01:05:15.912 : en:Глава 11
01:15:35.453 : en:Глава 12
01:22:00.411 : en:Глава 13
01:27:53.911 : en:Глава 14

Скриншоты

 GOLD TORRENT! DOWNLOAD TRAFFIC DOES NOT CONSIDER! 
Torrent: Registered [ 2020-01-10 22:16 ]   · 31A0084F429D86B562AEB2D0814E8D87832B4B3C

Download .torrent

Download

19 KB

Status: checked
Completed: 0 times
Size: 3.66 GB
Поделиться:
terms.php
[Profile] [PM]
Display posts:    
Reply to topic

Current time is: 08-Aug 11:20

All times are UTC + 3



You cannot post new topics in this forum
You cannot reply to topics in this forum
You cannot edit your posts in this forum
You cannot delete your posts in this forum
You cannot vote in polls in this forum
You cannot attach files in this forum
You can download files in this forum