Земля: Один потрясающий день / Earth: One Amazing Day (2017) BDRip-AVC от ExKinoRay | Лицензия

Reply to topic
 
Author Message

admin ®

Gender: Male

Longevity: 4 years

Posts: 13084

Post 26-Sep-2018 09:25

[Quote]

Информация о фильме
Название: Земля: Один потрясающий день
Оригинальное название: Earth: One Amazing Day
Год выхода: 2017
Жанр: Семейный, документальный
Режиссер: Ричард Дэйл, Фань Лисинь, Питер Веббер / Richard Dale, Fan Lixin, Peter Webbern
В ролях: Роберт Редфорд, Джеки Чан, Николай Дроздов
О фильме :
Солнце восходит над Землей, и множество живых существ начинают свой день, полный трогательных, увлекательных и опасных событий. Игуаны спасаются бегством от ядовитых змей, очаровательные панды лакомятся побегами бамбука, жирафы сражаются за сердце «прекрасной дамы»… Жизнь в африканской саванне, на безлюдных островах в Тихом океане, в лесах Азии и на морском дне разворачивается по законам остросюжетного боевика, сентиментальной мелодрамы или головокружительного триллера. Никогда прежде чудеса не были так близко.

Страна: Великобритания
Студия: Earth Film Productions
Продолжительность: 01:33:40
Перевод: Дублированный (Николай Дроздов) | Лицензия BD RUS |
Файл
Формат: MKV
Качество: BDRip-AVC (BDRemux 1080p)
Видео: MPEG-4 AVC, 768x432, ~ 1037 Кбит/с
Аудио: AAC-HE, 2 ch, ~ 76 Кбит/с
Субтитры: Нет

MI

Общее
Уникальный идентификатор : 171578757711342587666061726344616651535 (0x8114DDE1FF73E1E7B31850702D30AB0F)
Полное имя : D:MOVIESEarth.One.Amazing.Day.2017..ExKinoRay.mkv
Формат : Matroska
Версия формата : Version 4 / Version 2
Размер файла : 745 Мбайт
Продолжительность : 1 ч. 33 м.
Общий поток : 1112 Кбит/сек
Дата кодирования : UTC 2018-09-23 06:21:46
Программа кодирования : mkvmerge v15.0.0 ('Duel with the Devil') 64-bit
Библиотека кодирования : libebml v1.3.5 + libmatroska v1.4.5
Видео
Идентификатор : 1
Формат : AVC
Формат/Информация : Advanced Video Codec
Профиль формата : High@L4.1
Параметр CABAC формата : Да
Параметр RefFrames формата : 12 кадров
Идентификатор кодека : V_MPEG4/ISO/AVC
Продолжительность : 1 ч. 33 м.
Битрейт : 1037 Кбит/сек
Ширина : 768 пикселей
Высота : 432 пикселя
Соотношение сторон : 16:9
Режим частоты кадров : Постоянный
Частота кадров : 24,000 кадра/сек
Цветовое пространство : YUV
Субдискретизация насыщенности : 4:2:0
Битовая глубина : 8 бит
Тип развёртки : Прогрессивная
Бит/(Пиксели*Кадры) : 0.130
Размер потока : 693 Мбайт (93%)
Библиотека кодирования : x264 core 152 r2851kMod ba24899
Настройки программы : cabac=1 / ref=12 / deblock=1:-2:-2 / analyse=0x3:0x133 / me=umh / subme=10 / psy=1 / fade_compensate=0.00 / psy_rd=1.00:0.12 / mixed_ref=1 / me_range=32 / chroma_me=1 / trellis=2 / 8x8dct=1 / cqm=0 / deadzone=21,11 / fast_pskip=0 / chroma_qp_offset=-3 / threads=6 / lookahead_threads=1 / sliced_threads=0 / nr=0 / decimate=0 / interlaced=0 / bluray_compat=0 / constrained_intra=0 / bframes=11 / b_pyramid=2 / b_adapt=2 / b_bias=0 / direct=3 / weightb=1 / open_gop=0 / weightp=2 / keyint=240 / keyint_min=23 / scenecut=40 / intra_refresh=0 / rc_lookahead=40 / rc=2pass / mbtree=1 / bitrate=1037 / ratetol=1.0 / qcomp=0.60 / qpmin=0 / qpmax=69 / qpstep=4 / cplxblur=20.0 / qblur=0.5 / ip_ratio=1.40 / aq=3:1.00
Default : Да
Forced : Нет
Аудио
Идентификатор : 2
Формат : AAC
Формат/Информация : Advanced Audio Codec
Профиль формата : HE-AAC / LC
Идентификатор кодека : A_AAC
Продолжительность : 1 ч. 33 м.
Битрейт : 76,0 Кбит/сек
Каналы : 2 канала
Расположение каналов : Front: L R
Частота : 48,0 КГц / 24,0 КГц
Частота кадров : 23,438 кадра/сек (1024 SPF)
Метод сжатия : С потерями
Задержка видео : 31 мс.
Размер потока : 50,9 Мбайт (7%)
Язык : Russian
Default : Да
Forced : Нет
Меню
00:00:00.000 : en:Chapter 1
00:01:14.833 : en:Chapter 2
00:11:32.208 : en:Chapter 3
00:24:02.083 : en:Chapter 4
00:36:49.625 : en:Chapter 5
00:47:39.666 : en:Chapter 6
00:59:57.166 : en:Chapter 7
01:11:06.708 : en:Chapter 8
01:21:31.250 : en:Chapter 9

Скриншоты

[Profile] [PM]
Display posts:    
Reply to topic

Current time is: 22-Oct 02:30

All times are UTC + 3



You cannot post new topics in this forum
You cannot reply to topics in this forum
You cannot edit your posts in this forum
You cannot delete your posts in this forum
You cannot vote in polls in this forum
You cannot attach files in this forum
You can download files in this forum