Земля: Один потрясающий день / Earth: One Amazing Day (2017) BDRip 720p от MegaPeer | Лицензия

Reply to topic
 
Author Message

admin ®

Gender: Male

Longevity: 2 years 8 months

Posts: 15609

Post 26-Sep-2018 09:19

[Quote]

Информация о фильме
Название: Земля: Один потрясающий день
Оригинальное название: Earth: One Amazing Day
Год выхода: 2017
Жанр: семейный, документальный
Режиссер: Ричард Дэйл, Фань Лисинь, Питер Веббер / Richard Dale, Fan Lixin, Peter Webbern
В ролях: Роберт Редфорд, Джеки Чан, Николай Дроздов
О фильме:
Солнце восходит над Землей, и множество живых существ начинают свой день, полный трогательных, увлекательных и опасных событий. Игуаны спасаются бегством от ядовитых змей, очаровательные панды лакомятся побегами бамбука, жирафы сражаются за сердце «прекрасной дамы»… Жизнь в африканской саванне, на безлюдных островах в Тихом океане, в лесах Азии и на морском дне разворачивается по законам остросюжетного боевика, сентиментальной мелодрамы или головокружительного триллера. Никогда прежде чудеса не были так близко.

Страна: Великобритания
Студия: Earth Film Productions
Продолжительность: 01:33:40
Перевод: Дублированный (Николай Дроздов) | Лицензия BD RUS |
Файл
Формат: MKV
Качество: BDRip (720p)
Видео: AVC, 1280x720, 24 fps, 7074 Кбит/сек
Звук: AC3, 6 ch, 640 kbps
Субтитры: Нет

Скриншоты

MediaInfo:

x264 [info]: frame I:1234 Avg QP:16.11 size:137030
x264 [info]: frame P:71201 Avg QP:19.08 size: 52810
x264 [info]: frame B:62446 Avg QP:20.70 size: 16567
-----------------------------------------------------------------------------------------------------------------------------
Формат : Matroska
Версия формата : Version 4 / Version 2
Размер файла : 5,04 Гбайт
Продолжительность : 1 ч. 33 м.
Общий поток : 7708 Кбит/сек
Дата кодирования : UTC 2018-07-22 17:12:11
Программа кодирования : mkvmerge v25.0.0 ('Prog Noir') 64-bit
Библиотека кодирования : libebml v1.3.6 + libmatroska v1.4.9
Видео
Идентификатор : 1
Формат : AVC
Формат/Информация : Advanced Video Codec
Профиль формата : High@L4.1
Настройки формата : CABAC / 10 Ref Frames
Параметр CABAC формата : Да
Параметр RefFrames формата : 10 кадров
Идентификатор кодека : V_MPEG4/ISO/AVC
Продолжительность : 1 ч. 33 м.
Битрейт : 7074 Кбит/сек
Ширина : 1280 пикселей
Высота : 720 пикселей
Соотношение сторон : 16:9
Режим частоты кадров : Постоянный
Частота кадров : 24,000 кадра/сек
Цветовое пространство : YUV
Субдискретизация насыщенности : 4:2:0
Битовая глубина : 8 бит
Тип развёртки : Прогрессивная
Бит/(Пиксели*Кадры) : 0.320
Размер потока : 4,62 Гбайт (92%)
Библиотека кодирования : x264 core 146 r2538 121396c
Настройки программы : cabac=1 / ref=10 / deblock=1:-3:-3 / analyse=0x3:0x133 / me=umh / subme=11 / psy=1 / psy_rd=1.00:0.00 / mixed_ref=1 / me_range=32 / chroma_me=1 / trellis=2 / 8x8dct=1 / cqm=0 / deadzone=21,11 / fast_pskip=0 / chroma_qp_offset=-2 / threads=24 / lookahead_threads=2 / sliced_threads=0 / nr=0 / decimate=0 / interlaced=0 / bluray_compat=0 / constrained_intra=0 / bframes=10 / b_pyramid=2 / b_adapt=1 / b_bias=0 / direct=3 / weightb=1 / open_gop=0 / weightp=2 / keyint=240 / keyint_min=23 / scenecut=40 / intra_refresh=0 / rc_lookahead=40 / rc=2pass / mbtree=0 / bitrate=7074 / ratetol=1.0 / qcomp=0.60 / qpmin=0 / qpmax=69 / qpstep=4 / cplxblur=20.0 / qblur=0.5 / vbv_maxrate=50000 / vbv_bufsize=62500 / nal_hrd=none / filler=0 / ip_ratio=1.40 / pb_ratio=1.30 / aq=1:1.00
Default : Да
Forced : Нет
Аудио
Идентификатор : 2
Формат : AC-3
Формат/Информация : Audio Coding 3
Идентификатор кодека : A_AC3
Продолжительность : 1 ч. 33 м.
Вид битрейта : Постоянный
Битрейт : 640 Кбит/сек
Каналы : 6 каналов
Расположение каналов : Front: L C R, Side: L R, LFE
Частота : 48,0 КГц
Частота кадров : 31,250 кадров/сек (1536 SPF)
Битовая глубина : 16 бит
Метод сжатия : С потерями
Размер потока : 429 Мбайт (8%)
Язык : Russian
ServiceKind/String : Complete Main
Default : Да
Forced : Нет
Меню
00:00:00.000 : en:Chapter 1
00:01:14.833 : en:Chapter 2
00:11:32.208 : en:Chapter 3
00:24:02.083 : en:Chapter 4
00:36:49.625 : en:Chapter 5
00:47:39.666 : en:Chapter 6
00:59:57.166 : en:Chapter 7
01:11:06.708 : en:Chapter 8
01:21:31.250 : en:Chapter 9
[Profile] [PM]
Display posts:    
Reply to topic

Current time is: 03-Jun 22:47

All times are UTC + 3



You cannot post new topics in this forum
You cannot reply to topics in this forum
You cannot edit your posts in this forum
You cannot delete your posts in this forum
You cannot vote in polls in this forum
You cannot attach files in this forum
You can download files in this forum