Сигнал / The Signal (Уильям Юбэнк / William Eubank) [2014, США, Фантастика, триллер, BDRip-AVC] AVO (Ю.Немахов) + Sub Eng + Original Eng

Reply to topic
DL-List and Torrent activity [Update пиров]
Size:  2.19 GB   |    Registered:  3 years 5 months   |    Completed:  1 time

Seeder not seen: 1 month 2 days

 
   
 
 
Author Message

admin ®

Gender: Male

Longevity: 3 years 7 months

Posts: 10804

Post 28-Nov-2017 03:47

[Quote]

СигналThe Signal«R U Agitated?»
Страна: США
Жанр: Фантастика, триллер
Год выпуска: 2014
Продолжительность: 01:37:11
Перевод: Авторский (одноголосый закадровый) [Ю.Немахов]
Субтитры: английские
Оригинальная аудиодорожка: английский
Режиссер: Уильям Юбэнк / William Eubank
В ролях: Лоуренс Фишборн, Патрик Дэвидсон, Брентон Туэйтес, Оливия Кук, Бо Напп, Джеффри Гроувер, Рой Кенни, Тимоти Холмс, Рикардо Кампос, Дрю Сайкес
Описание: Трое студентов-хакеров неожиданно начинают получать таинственные сообщения от незнакомца под ником NOMAD (Кочевник). Но они даже не подозревают, что имеют дело не с человеком, а с сигналами внеземного разума.
После серии необъяснимых происшествий друзья бегут из опасной ловушки, но тут же становятся объектами охоты «людей в чёрном», которые считают, что после контакта хакеры могут представлять угрозу для всего человечества.
Доп. информация:

Автор рипа: IVAN@190282
Качество видео: BDRip-AVC |Сигнал / The Signal (2014) 1080p BD-Remux|HD Club|
Формат видео: MKV
Видео: 1152x480 (2,35:1), 23.976 fps, 2334 Кbps, 0.174 bit/pixel
Аудио: 48 kHz, AC3 Dolby Digital, 3/2 (L,C,R,l,r) + LFE ch, 448.00 kbps | AVO
Аудио 2: 48 kHz, AC3 Dolby Digital, 3/2 (L,C,R,l,r) + LFE ch, 448.00 kbps | ENG
Формат субтитров: softsub (SRT)
Доп. информация о субтитрах: отключаемые

Знаете ли вы, что...

• Кульминация фильма снималась на стальном арочном мосту через ущелье Рио-Гранде в штате Нью-Мексико, который считается одним из самых эффектных и самых высоких (172 метра) в США.
• Композитор фильма Нима Фахрара собственноручно сделал некоторые из уникальных инструментов, на которых была сыграна музыка к фильму.

MediaInfo

General
Unique ID : 175708947916519028414821646119301881351 (0x84304FFB577A3EE9BF2777CA24491E07)
Complete name : E:\Мои рипы\Сигнал\Сигнал by_IVAN@190282.mkv
Format : Matroska
Format version : Version 4 / Version 2
File size : 2.19 GiB
Duration : 1h 37mn
Overall bit rate : 3 233 Kbps
Encoded date : UTC 2014-10-05 14:13:01
Writing application : mkvmerge v7.0.0 ('Where We Going') 64bit built on Jun 9 2014 15:16:27
Writing library : libebml v1.3.0 + libmatroska v1.4.1
DURATION : 01:31:26.689000000
NUMBER_OF_FRAMES : 893
NUMBER_OF_BYTES : 24992
_STATISTICS_WRITING_APP : mkvmerge v7.0.0 ('Where We Going') 64bit built on Jun 9 2014 15:16:27
_STATISTICS_WRITING_DATE_UTC : 2014-10-05 14:13:01
_STATISTICS_TAGS : BPS DURATION NUMBER_OF_FRAMES NUMBER_OF_BYTES
Video
ID : 1
Format : AVC
Format/Info : Advanced Video Codec
Format profile : High@L4.1
Format settings, CABAC : Yes
Format settings, ReFrames : 13 frames
Codec ID : V_MPEG4/ISO/AVC
Duration : 1h 37mn
Bit rate : 2 334 Kbps
Width : 1 152 pixels
Height : 480 pixels
Display aspect ratio : 2.35:1
Original display aspect ratio : 2.35:1
Frame rate mode : Constant
Frame rate : 23.976 fps
Color space : YUV
Chroma subsampling : 4:2:0
Bit depth : 8 bits
Scan type : Progressive
Bits/(Pixel*Frame) : 0.176
Stream size : 1.54 GiB (70%)
Writing library : x264 core 142 r2479kMod dd79a61
Encoding settings : cabac=1 / ref=13 / deblock=1:-3:-3 / analyse=0x3:0x113 / me=umh / subme=11 / psy=1 / fade_compensate=0.00 / psy_rd=1.00:0.15 / mixed_ref=1 / me_range=48 / chroma_me=1 / trellis=2 / 8x8dct=1 / cqm=0 / deadzone=21,11 / fast_pskip=0 / chroma_qp_offset=0 / threads=6 / lookahead_threads=6 / sliced_threads=0 / slices=10 / nr=0 / decimate=1 / interlaced=0 / bluray_compat=0 / constrained_intra=0 / fgo=0 / bframes=16 / b_pyramid=2 / b_adapt=2 / b_bias=0 / direct=3 / weightb=1 / open_gop=1 / weightp=2 / keyint=240 / keyint_min=23 / scenecut=40 / intra_refresh=0 / rc_lookahead=40 / rc=2pass / mbtree=0 / bitrate=2334 / ratetol=1.0 / qcomp=0.60 / qpmin=0 / qpmax=69 / qpstep=4 / cplxblur=20.0 / qblur=0.5 / vbv_maxrate=50000 / vbv_bufsize=62500 / nal_hrd=none / filler=0 / ip_ratio=1.40 / pb_ratio=1.30 / aq=1:1.00
Default : Yes
Forced : No
Color primaries : BT.709
Transfer characteristics : BT.709
Matrix coefficients : BT.709
Audio #1
ID : 2
Format : AC-3
Format/Info : Audio Coding 3
Mode extension : CM (complete main)
Format settings, Endianness : Big
Codec ID : A_AC3
Duration : 1h 37mn
Bit rate mode : Constant
Bit rate : 448 Kbps
Channel(s) : 6 channels
Channel positions : Front: L C R, Side: L R, LFE
Sampling rate : 48.0 KHz
Bit depth : 16 bits
Compression mode : Lossy
Stream size : 311 MiB (14%)
Default : Yes
Forced : No
Audio #2
ID : 3
Format : AC-3
Format/Info : Audio Coding 3
Mode extension : CM (complete main)
Format settings, Endianness : Big
Codec ID : A_AC3
Duration : 1h 37mn
Bit rate mode : Constant
Bit rate : 448 Kbps
Channel(s) : 6 channels
Channel positions : Front: L C R, Side: L R, LFE
Sampling rate : 48.0 KHz
Bit depth : 16 bits
Compression mode : Lossy
Stream size : 311 MiB (14%)
Default : No
Forced : No
Text
ID : 4
Format : UTF-8
Codec ID : S_TEXT/UTF8
Codec ID/Info : UTF-8 Plain Text
Default : Yes
Forced : No

x264 log

x264 [info]: frame I:1028 Avg QP:13.33 size: 81390
x264 [info]: frame P:32378 Avg QP:16.01 size: 23691
x264 [info]: frame B:106418 Avg QP:17.73 size: 7987
x264 [info]: consecutive B-frames: 3.8% 4.3% 11.2% 13.7% 14.6% 36.6% 6.1% 2.1% 1.6% 1.0% 1.3% 1.1% 0.8% 0.7% 0.3% 0.2% 0.9%
x264 [info]: kb/s:2332.92
x264 [total]: encoded 139824 frames, 4.22 fps, 2332.92 kb/s, duration 9:12:26.11

Скриншот c названием фильма

Скриншоты

 GOLD TORRENT! DOWNLOAD TRAFFIC DOES NOT CONSIDER! 
Torrent: Registered [ 2017-11-28 03:47 ]   · 632A0D31535D446483216CD29356D2586E390A43

Download .torrent

Download

11 KB

Status: checked
Completed: 1 times
Size: 2.19 GB
Поделиться:
terms.php
[Profile] [PM]
Display posts:    
Reply to topic

Current time is: 06-May 04:35

All times are UTC + 3



You cannot post new topics in this forum
You cannot reply to topics in this forum
You cannot edit your posts in this forum
You cannot delete your posts in this forum
You cannot vote in polls in this forum
You cannot attach files in this forum
You can download files in this forum