Ночные стражи (Эмилис Веливис) [2016, Фэнтези, боевик, BDRip-AVC] + Sub Rus

Reply to topic
 
Author Message

admin ®

Gender: Male

Longevity: 3 years 7 months

Posts: 10827

Post 28-Nov-2017 03:37

[Quote]

Ночные стражи «Отдел борьбы с нечистью ждет новую кровь»

Жанр: Фэнтези, боевик
Год выпуска: 2017
Продолжительность: 01:41:01
Субтитры: русские форсированные, русские полные
Режиссёр: Эмилис Веливис / Emilis Velyvis
В ролях: Иван Янковский, Любовь Аксенова, Леонид Ярмольник, Михаил Евланов, Сабина Ахмедова, Константин Адаев, Юрий Ваксман, Алексей Дмитриев, Денис Бузин, Евгений Косырев
Описание: Оборотни, упыри и ведьмы — существуют. Если вы до сих пор не сталкивались с ними, то это заслуга отдела по надзору за представителями альтернативной жизни.
Обычный курьер случайно становится свидетелем зачистки нечисти в одном из столичных отелей, после чего получает новую работу.
Сотрудники отдела «Н» не бессмертны, но даже вампирам они не по зубам.
Доп. информация:
Релиз группы:
Сохранены оригинальные главы как на Bluray
Качество видео: BDRip-AVC | Guardians.of.the.Night.The.Vampire.War.2016.DUAL.COMPLETE.BLURAY-GMB_HDCLUB |
Формат видео: MKV
Видео: 1152x480 (2:40:1), 23,976 fps, 3794 Кbps, 0.286 bit/pixe
Аудио: 48 kHz, AC3 Dolby Digital, 3/2 (L,C,R,l,r) + LFE ch, ~448.00 kbps avg RUS

MediaInfo

General
Unique ID : 217931141277730741137212058066304353640 (0xA3F402D625ADBA9089F539096D77C568)
Complete name : F:\Мои рипы\Guardians.of.the.Night.The.Vampire.War by_IVAN@190282.mkv
Format : Matroska
Format version : Version 4 / Version 2
File size : 3.06 GiB
Duration : 1h 41mn
Overall bit rate : 4 337 Kbps
Movie name : Guardians.of.the.Night.The.Vampire.War by_IVAN@190282
Encoded date : UTC 2017-08-03 19:00:59
Writing application : mkvmerge v14.0.0 ('Flow') 64bit
Writing library : libebml v1.3.4 + libmatroska v1.4.5
DURATION : 01:32:55.760000000
NUMBER_OF_FRAMES : 814
NUMBER_OF_BYTES : 36854
_STATISTICS_WRITING_APP : mkvmerge v14.0.0 ('Flow') 64bit
_STATISTICS_WRITING_DATE_UTC : 2017-08-03 19:00:59
_STATISTICS_TAGS : BPS DURATION NUMBER_OF_FRAMES NUMBER_OF_BYTES
Attachment : Yes
Video
ID : 1
Format : AVC
Format/Info : Advanced Video Codec
Format profile : High@L4.1
Format settings, CABAC : Yes
Format settings, ReFrames : 11 frames
Codec ID : V_MPEG4/ISO/AVC
Duration : 1h 41mn
Bit rate : 3 803 Kbps
Width : 1 152 pixels
Height : 480 pixels
Display aspect ratio : 2.40:1
Frame rate mode : Constant
Frame rate : 23.976 fps
Color space : YUV
Chroma subsampling : 4:2:0
Bit depth : 8 bits
Scan type : Progressive
Bits/(Pixel*Frame) : 0.287
Stream size : 2.68 GiB (88%)
Title : Guardians.of.the.Night.The.Vampire.War by_IVAN@190282
Writing library : x264 core 152 r2851kMod ba24899
Encoding settings : cabac=1 / ref=11 / deblock=1:-3:-3 / analyse=0x3:0x113 / me=umh / subme=11 / psy=1 / fade_compensate=0.00 / psy_rd=1.00:0.05 / mixed_ref=1 / me_range=48 / chroma_me=1 / trellis=2 / 8x8dct=1 / cqm=0 / deadzone=21,11 / fast_pskip=0 / chroma_qp_offset=-3 / threads=6 / lookahead_threads=6 / sliced_threads=0 / nr=0 / decimate=1 / interlaced=0 / bluray_compat=0 / constrained_intra=0 / bframes=16 / b_pyramid=2 / b_adapt=2 / b_bias=0 / direct=3 / weightb=1 / open_gop=0 / weightp=2 / keyint=240 / keyint_min=23 / scenecut=40 / intra_refresh=0 / rc_lookahead=60 / rc=crf / mbtree=1 / crf=16.5000 / qcomp=0.60 / qpmin=0 / qpmax=69 / qpstep=4 / vbv_maxrate=50000 / vbv_bufsize=62500 / crf_max=0.0 / nal_hrd=none / filler=0 / ip_ratio=1.40 / aq=3:0.70
Language : English
Default : Yes
Forced : No
Color primaries : BT.709
Transfer characteristics : BT.709
Matrix coefficients : BT.709
DURATION : 01:41:01.681000000
NUMBER_OF_FRAMES : 145335
NUMBER_OF_BYTES : 2945020090
_STATISTICS_WRITING_APP : mkvmerge v14.0.0 ('Flow') 64bit
_STATISTICS_WRITING_DATE_UTC : 2017-08-03 19:00:59
_STATISTICS_TAGS : BPS DURATION NUMBER_OF_FRAMES NUMBER_OF_BYTES
Audio
ID : 2
Format : AC-3
Format/Info : Audio Coding 3
Mode extension : CM (complete main)
Format settings, Endianness : Big
Codec ID : A_AC3
Duration : 1h 41mn
Bit rate mode : Constant
Bit rate : 448 Kbps
Channel(s) : 6 channels
Channel positions : Front: L C R, Side: L R, LFE
Sampling rate : 48.0 KHz
Bit depth : 16 bits
Compression mode : Lossy
Stream size : 324 MiB (10%)
Title : Rus Bluray GER
Language : Russian
Default : Yes
Forced : No
Text #1
ID : 3
Format : UTF-8
Codec ID : S_TEXT/UTF8
Codec ID/Info : UTF-8 Plain Text
Title : Rus forsed
Language : Russian
Default : Yes
Forced : No
Text #2
ID : 4
Format : UTF-8
Codec ID : S_TEXT/UTF8
Codec ID/Info : UTF-8 Plain Text
Title : Rus
Language : Russian
Default : No
Forced : No
Menu
00:00:00.000 : en:(01)00:00:00:000
00:08:31.761 : en:(02)00:08:31:761
00:16:33.158 : en:(03)00:16:33:158
00:24:32.971 : en:(04)00:24:32:971
00:34:38.326 : en:(05)00:34:38:326
00:44:11.857 : en:(06)00:44:11:857
00:52:39.614 : en:(07)00:52:39:614
01:01:05.203 : en:(08)01:01:05:203
01:09:50.352 : en:(09)01:09:50:352
01:19:00.819 : en:(10)01:19:00:819
01:26:46.075 : en:(11)01:26:46:075
01:33:54.962 : en:(12)01:33:54:962

x264 log

VIDEO ENCODING
x264 [info]: frame I:1111 Avg QP:14.87 size:121947 PSNR Mean Y:49.50 U:52.05 V:51.58 Avg:50.10 Global:49.84
x264 [info]: frame P:32780 Avg QP:17.58 size: 38520 PSNR Mean Y:46.20 U:49.40 V:48.65 Avg:46.92 Global:46.51
x264 [info]: frame B:111444 Avg QP:19.00 size: 13880 PSNR Mean Y:45.40 U:49.13 V:48.26 Avg:46.17 Global:45.72
x264 [info]: consecutive B-frames: 2.9% 3.6% 9.5% 16.4% 19.9% 31.6% 8.4% 5.4% 0.9% 0.4% 0.2% 0.1% 0.2% 0.1% 0.1% 0.1% 0.2%
x264 [total]: encoded 145335 frames, 1.76 fps, 3886.74 kb/s, duration 22:58:12.18

Скриншот c названием фильма

Скриншоты

Убедительная просьба пожалуйста кто скачал не бросайте раздачу!!!
[Profile] [PM]
Display posts:    
Reply to topic

Current time is: 08-May 19:10

All times are UTC + 3



You cannot post new topics in this forum
You cannot reply to topics in this forum
You cannot edit your posts in this forum
You cannot delete your posts in this forum
You cannot vote in polls in this forum
You cannot attach files in this forum
You can download files in this forum