Шеф Адам Джонс / Burnt (Джон Уэллс / John Wells) [2015, США, Драма, комедия, BDRip-AVC] Dub + Sub Eng + Original Eng

Reply to topic
DL-List and Torrent activity [Update пиров]
Size:  2.27 GB   |    Registered:  3 years 3 months   |    Completed:  1 time

Seeder not seen: 6 hours

 
   
 
 
Author Message

admin ®

Gender: Male

Longevity: 3 years 5 months

Posts: 10227

Post 28-Nov-2017 03:33

[Quote]

Шеф Адам ДжонсBurnt«Never underestimate a man with nothing to lose»

Страна: США
Жанр: Драма, комедия
Год выпуска: 2015
Продолжительность: 01:40:59
Перевод: Профессиональный (дублированный)
Субтитры: английские
Оригинальная аудиодорожка: английский
Режиссер: Джон Уэллс / John Wells
В ролях: Брэдли Купер, Сиенна Миллер, Омар Си, Даниэль Брюль, Риккардо Скамарчио, Ума Турман, Эмма Томпсон, Сэм Кили, Генри Гудман, Мэттью Риз
Описание: В центре сюжета - история некогда знаменитого шеф-повара, который из-за своего пагубного пристрастия теряет собственный ресторан в Париже, пониженный в рейтинге до унизительных двух звезд. Решив не сдаваться, он вновь собирает свою команду, перестраивает лондонский ресторан и надеется получить три звезды.
Доп. информация:

Автор рипа: IVAN@190282
Сохранены оригинальные главы как на Bluray
Качество видео: BDRip-AVC Шеф Адам Джонс / Burnt (Джон Уэллс / John Wells) [2015, США, Blu-ray disc (custom) ]
Формат видео: MKV
Видео: 1152x480 (2,40:1), 23.976 fps, 2318 Кbps, 0.175 bit/pixel
Аудио: 48 kHz, AC3 Dolby Digital, 3/2 (L,C,R,l,r) + LFE ch, 384.00 kbps | DUB
Аудио 2: 48 kHz, AC3 Dolby Digital, 3/2 (L,C,R,l,r) + LFE ch, 448.00 kbps | ENG
Формат субтитров: softsub (SRT)
Доп. информация о субтитрах: отключаемые

MediaInfo

General
Unique ID : 189504569250341636058054114141591321027 (0x8E9140A0AD6F3F3D982E08F9B20839C3)
Complete name : D:\Мои рипы\Шеф Адам Джонс\Burnt by_IVAN@190282.mkv
Format : Matroska
Format version : Version 4 / Version 2
File size : 2.27 GiB
Duration : 1h 40mn
Overall bit rate : 3 214 Kbps
Movie name : Burnt by_IVAN@190282
Encoded date : UTC 2016-02-16 16:28:10
Writing application : mkvmerge v8.8.0 ('Wind at my back') 64bit
Writing library : libebml v1.3.3 + libmatroska v1.4.4
Attachements : cover.jpg
DURATION : 01:36:02.507000000
NUMBER_OF_FRAMES : 1329
NUMBER_OF_BYTES : 45674
_STATISTICS_WRITING_APP : mkvmerge v8.8.0 ('Wind at my back') 64bit
_STATISTICS_WRITING_DATE_UT : 2016-02-16 16:28:10
_STATISTICS_TAGS : BPS DURATION NUMBER_OF_FRAMES NUMBER_OF_BYTES
Video
ID : 1
Format : AVC
Format/Info : Advanced Video Codec
Format profile : High@L4.1
Format settings, CABAC : Yes
Format settings, ReFrames : 11 frames
Codec ID : V_MPEG4/ISO/AVC
Duration : 1h 40mn
Bit rate : 2 318 Kbps
Width : 1 152 pixels
Height : 480 pixels
Display aspect ratio : 2.40:1
Frame rate mode : Constant
Frame rate : 23.976 fps
Color space : YUV
Chroma subsampling : 4:2:0
Bit depth : 8 bits
Scan type : Progressive
Bits/(Pixel*Frame) : 0.175
Stream size : 1.64 GiB (72%)
Title : Burnt by_IVAN@190282
Writing library : x264 core 148 r2665kMod a01e339
Encoding settings : cabac=1 / ref=11 / deblock=1:-3:-3 / analyse=0x3:0x133 / me=umh / subme=11 / psy=1 / fade_compensate=0.00 / psy_rd=1.00:0.05 / mixed_ref=1 / me_range=48 / chroma_me=1 / trellis=2 / 8x8dct=1 / cqm=0 / deadzone=21,11 / fast_pskip=0 / chroma_qp_offset=-3 / threads=6 / lookahead_threads=6 / sliced_threads=0 / nr=0 / decimate=1 / interlaced=0 / bluray_compat=0 / constrained_intra=0 / fgo=0 / bframes=16 / b_pyramid=2 / b_adapt=2 / b_bias=0 / direct=3 / weightb=1 / open_gop=0 / weightp=2 / keyint=240 / keyint_min=23 / scenecut=40 / intra_refresh=0 / rc_lookahead=60 / rc=crf / mbtree=0 / crf=17.0000 / qcomp=0.60 / qpmin=0 / qpmax=69 / qpstep=4 / vbv_maxrate=50000 / vbv_bufsize=62500 / crf_max=0.0 / nal_hrd=none / filler=0 / ip_ratio=1.40 / pb_ratio=1.30 / aq=3:0.70
Language : English
Default : Yes
Forced : No
Color range : Limited
Color primaries : BT.709
Transfer characteristics : BT.709
Matrix coefficients : BT.709
DURATION : 01:40:59.262000000
NUMBER_OF_FRAMES : 145277
NUMBER_OF_BYTES : 1802675991
_STATISTICS_WRITING_APP : mkvmerge v8.8.0 ('Wind at my back') 64bit
_STATISTICS_WRITING_DATE_UT : 2016-02-16 16:28:10
_STATISTICS_TAGS : BPS DURATION NUMBER_OF_FRAMES NUMBER_OF_BYTES
Audio #1
ID : 2
Format : AC-3
Format/Info : Audio Coding 3
Mode extension : CM (complete main)
Format settings, Endianness : Big
Codec ID : A_AC3
Duration : 1h 40mn
Bit rate mode : Constant
Bit rate : 384 Kbps
Channel(s) : 6 channels
Channel positions : Front: L C R, Side: L R, LFE
Sampling rate : 48.0 KHz
Compression mode : Lossy
Stream size : 277 MiB (12%)
Title : Dub Bluray
Default : Yes
Forced : No
Audio #2
ID : 3
Format : AC-3
Format/Info : Audio Coding 3
Mode extension : CM (complete main)
Format settings, Endianness : Big
Codec ID : A_AC3
Duration : 1h 40mn
Bit rate mode : Constant
Bit rate : 448 Kbps
Channel(s) : 6 channels
Channel positions : Front: L C R, Side: L R, LFE
Sampling rate : 48.0 KHz
Compression mode : Lossy
Stream size : 324 MiB (14%)
Title : Eng
Language : English
Default : No
Forced : No
Text
ID : 4
Format : UTF-8
Codec ID : S_TEXT/UTF8
Codec ID/Info : UTF-8 Plain Text
Title : Eng
Language : English
Default : No
Forced : No
Menu
00:00:00.000 : en:00:00:00.000
00:04:21.386 : en:00:04:21.386
00:10:20.328 : en:00:10:20.328
00:17:42.394 : en:00:17:42.394
00:23:23.360 : en:00:23:23.360
00:31:49.949 : en:00:31:49.949
00:37:52.687 : en:00:37:52.687
00:44:25.245 : en:00:44:25.245
00:50:55.177 : en:00:50:55.177
00:55:28.658 : en:00:55:28.658
01:01:41.239 : en:01:01:41.239
01:10:27.348 : en:01:10:27.348
01:16:13.735 : en:01:16:13.735
01:23:25.125 : en:01:23:25.125
01:30:54.365 : en:01:30:54.365
01:36:11.682 : en:01:36:11.682

x264 log

x264 [info]: frame I:1205 Avg QP:14.86 size: 69071 PSNR Mean Y:49.74 U:52.29 V:51.76 Avg:50.27 Global:49.83
x264 [info]: frame P:34657 Avg QP:15.80 size: 25013 PSNR Mean Y:48.68 U:52.25 V:50.94 Avg:49.19 Global:48.64
x264 [info]: frame B:109415 Avg QP:18.24 size: 7792 PSNR Mean Y:48.12 U:51.12 V:50.33 Avg:48.59 Global:47.97
x264 [info]: consecutive B-frames: 2.9% 4.2% 12.2% 22.6% 18.7% 32.7% 3.8% 1.0% 0.7% 0.4% 0.3% 0.1% 0.1% 0.1% 0.1% 0.0% 0.2%
x264 [total]: encoded 145277 frames, 6.08 fps, 2380.06 kb/s, duration 6:38:09.89

Скриншот c названием фильма

Скриншоты

Убедительная просьба пожалуйста кто скачал не бросайте раздачу!!!
 GOLD TORRENT! DOWNLOAD TRAFFIC DOES NOT CONSIDER! 
Torrent: Registered [ 2017-11-28 03:33 ]   · DB06494F92949C8097BA5355DA1A6391731737E7

Download .torrent

Download

12 KB

Status: checked
Completed: 1 times
Size: 2.27 GB
Поделиться:
terms.php
[Profile] [PM]
Display posts:    
Reply to topic

Current time is: 07-Mar 03:12

All times are UTC + 3



You cannot post new topics in this forum
You cannot reply to topics in this forum
You cannot edit your posts in this forum
You cannot delete your posts in this forum
You cannot vote in polls in this forum
You cannot attach files in this forum
You can download files in this forum