Армагеддон / Armageddon (Майкл Бэй / Michael Bay) [1998, США, Фантастика, мелодрама, приключения, BDRip-AVC] Dub (BD CEE) + MVO (Киномания) + MVO (Superbit) + AVO (Ю. Сербин) + AVO (А. Гаврилов) + Sub Rus, Eng + Original Eng

Reply to topic
DL-List and Torrent activity [Update пиров]
Size:  7.31 GB   |    Registered:  3 years 3 months   |    Completed:  1 time

Seeder not seen: 19 days

 
   
 
 
Author Message

admin ®

Gender: Male

Longevity: 3 years 5 months

Posts: 10168

Post 28-Nov-2017 03:22

[Quote]

АрмагеддонArmageddon«Во имя любви. Во имя чести. Во имя человечества»
Страна: США
Жанр: Фантастика, мелодрама, приключения
Год выпуска: 1998
Продолжительность: 02:30:50
Перевод: Профессиональный (дублированный) [Лицензия BD CEE]
Перевод 2: Профессиональный (многоголосый закадровый) [Киномания]
Перевод 3: Профессиональный (многоголосый закадровый) [Superbit]
Перевод 4: Авторский (одноголосый закадровый) [Ю.Сербин]
Перевод 5: Авторский (одноголосый закадровый) [А.Гаврилов]
Субтитры: русские,английские
Оригинальная аудиодорожка: английский
Режиссер: Майкл Бэй / Michael Bay
В ролях: Брюс Уиллис, Билли Боб Торнтон, Бен Аффлек, Лив Тайлер, Уилл Пэттон, Стив Бушеми, Уильям Фихтнер, Оуэн Уилсон, Майкл Кларк Дункан, Петер Стормаре
Описание: Тень гигантского астероида легла на Землю. До рокового столкновения остаются считанные дни. Наступает Армагеддон, трагический финал мировой истории. Чтобы предотвратить катастрофу, необходимо чудо — или совместные усилия лучших из лучших вместе с технологической мощью всего созданного человеком. Сможет ли горстка людей противостоять вселенской стихии?..
Доп. информация:

Автор рипа: IVAN@190282
Качество видео: BDRip-AVC |Армагеддон / Armageddon (1998 1080p BD-Remux|
Формат видео: MKV
Видео: 1152x480 (2,35:1), 23.976 fps, 4378 Кbps, 0.330 bit/pixel
Аудио: 48 kHz, AC3 Dolby Digital, 3/2 (L,C,R,l,r) + LFE ch, 448.00 kbps DUB
Аудио 2: 48 kHz, AC3 Dolby Digital, 3/2 (L,C,R,l,r) + LFE ch, 384.00 kbps [Киномания]
Аудио 3: 48 kHz, AC3 Dolby Digital, 3/2 (L,C,R,l,r) + LFE ch, 448.00 kbps [А.Гаврилов] отдельно
Аудио 4: 48 kHz, AC3 Dolby Digital, 3/2 (L,C,R,l,r) + LFE ch, 384.00 kbps [Ю.Сербин] отдельно
Аудио 5: 48 kHz, AC3 Dolby Digital, 3/2 (L,C,R,l,r) + LFE ch, 448.00 kbps [Superbit] отдельно
Аудио 6: 48 kHz, AC3 Dolby Digital, 3/2 (L,C,R,l,r) + LFE ch, 448.00 kbps [ENG]
Формат субтитров: softsub (SRT)
Доп. информация о субтитрах: отключаемые

Знаете ли вы, что...

* Лив Тайлер пробовалась на фильм два раза, но её взяли только после третьей попытки. Картина вышла на экраны в день рождения Лив Тайлер (ей исполнился 21 год).
* Музыкальную тему к фильму — «I Don’t Want to Miss a Thing» — исполнил отец Лив Тайлер, Стив, в составе команды Aerosmith. Эта песня в течение четырех недель удерживала первое место в Billboard Hot 100.

MediaInfo

General
Unique ID : 221325282681326983499828372651213650011 (0xA681B2ED82340FC89F7A6CAF5F88F85B)
Complete name : E:\Мои рипы\Армагеддон\Армагеддон by_IVAN@190282.mkv
Format : Matroska
Format version : Version 4 / Version 2
File size : 5.97 GiB
Duration : 2h 30mn
Overall bit rate : 5 662 Kbps
Encoded date : UTC 2014-10-09 23:01:07
Writing application : mkvmerge v7.0.0 ('Where We Going') 64bit built on Jun 9 2014 15:16:27
Writing library : libebml v1.3.0 + libmatroska v1.4.1
DURATION : 02:30:50.240000000
NUMBER_OF_FRAMES : 282820
NUMBER_OF_BYTES : 506813440
_STATISTICS_WRITING_APP : mkvmerge v7.0.0 ('Where We Going') 64bit built on Jun 9 2014 15:16:27
_STATISTICS_WRITING_DATE_UTC : 2014-10-09 23:01:07
_STATISTICS_TAGS : BPS DURATION NUMBER_OF_FRAMES NUMBER_OF_BYTES
Video
ID : 1
Format : AVC
Format/Info : Advanced Video Codec
Format profile : High@L4.1
Format settings, CABAC : Yes
Format settings, ReFrames : 13 frames
Codec ID : V_MPEG4/ISO/AVC
Duration : 2h 30mn
Bit rate : 4 378 Kbps
Width : 1 152 pixels
Height : 480 pixels
Display aspect ratio : 2.35:1
Original display aspect ratio : 2.35:1
Frame rate mode : Constant
Frame rate : 23.976 fps
Color space : YUV
Chroma subsampling : 4:2:0
Bit depth : 8 bits
Scan type : Progressive
Bits/(Pixel*Frame) : 0.330
Stream size : 4.50 GiB (75%)
Writing library : x264 core 142 r2479kMod dd79a61
Encoding settings : cabac=1 / ref=13 / deblock=1:-3:-3 / analyse=0x3:0x113 / me=umh / subme=11 / psy=1 / fade_compensate=0.00 / psy_rd=1.00:0.15 / mixed_ref=1 / me_range=48 / chroma_me=1 / trellis=2 / 8x8dct=1 / cqm=0 / deadzone=21,11 / fast_pskip=0 / chroma_qp_offset=0 / threads=7 / lookahead_threads=6 / sliced_threads=0 / slices=10 / nr=0 / decimate=1 / interlaced=0 / bluray_compat=0 / constrained_intra=0 / fgo=0 / bframes=16 / b_pyramid=2 / b_adapt=2 / b_bias=0 / direct=3 / weightb=1 / open_gop=1 / weightp=2 / keyint=240 / keyint_min=23 / scenecut=40 / intra_refresh=0 / rc_lookahead=40 / rc=2pass / mbtree=0 / bitrate=4378 / ratetol=1.0 / qcomp=0.60 / qpmin=0 / qpmax=69 / qpstep=4 / cplxblur=20.0 / qblur=0.5 / vbv_maxrate=50000 / vbv_bufsize=62500 / nal_hrd=none / filler=0 / ip_ratio=1.40 / pb_ratio=1.30 / aq=1:1.00
Default : Yes
Forced : No
Color primaries : BT.709
Transfer characteristics : BT.709
Matrix coefficients : BT.709
Audio #1
ID : 2
Format : AC-3
Format/Info : Audio Coding 3
Mode extension : CM (complete main)
Format settings, Endianness : Big
Codec ID : A_AC3
Duration : 2h 30mn
Bit rate mode : Constant
Bit rate : 448 Kbps
Channel(s) : 6 channels
Channel positions : Front: L C R, Side: L R, LFE
Sampling rate : 48.0 KHz
Bit depth : 16 bits
Compression mode : Lossy
Stream size : 483 MiB (8%)
Title : dub
Default : Yes
Forced : No
Audio #2
ID : 3
Format : AC-3
Format/Info : Audio Coding 3
Mode extension : CM (complete main)
Format settings, Endianness : Big
Codec ID : A_AC3
Duration : 2h 30mn
Bit rate mode : Constant
Bit rate : 384 Kbps
Channel(s) : 6 channels
Channel positions : Front: L C R, Side: L R, LFE
Sampling rate : 48.0 KHz
Bit depth : 16 bits
Compression mode : Lossy
Stream size : 414 MiB (7%)
Title : kinomania
Default : No
Forced : No
Audio #3
ID : 4
Format : AC-3
Format/Info : Audio Coding 3
Mode extension : CM (complete main)
Format settings, Endianness : Big
Codec ID : A_AC3
Duration : 2h 30mn
Bit rate mode : Constant
Bit rate : 448 Kbps
Channel(s) : 6 channels
Channel positions : Front: L C R, Side: L R, LFE
Sampling rate : 48.0 KHz
Bit depth : 16 bits
Compression mode : Lossy
Stream size : 483 MiB (8%)
Title : eng
Default : No
Forced : No

x264 log

x264 [info]: frame I:1770 Avg QP:15.78 size: 69008
x264 [info]: frame P:63198 Avg QP:17.15 size: 36951
x264 [info]: frame B:152021 Avg QP:19.25 size: 16283
x264 [info]: consecutive B-frames: 7.2% 8.1% 14.8% 24.9% 13.9% 22.4% 4.1% 1.7% 0.9% 0.7% 0.5% 0.3% 0.2% 0.2% 0.1% 0.1% 0.1%
x264 [info]: kb/s:4360.25
x264 [total]: encoded 216989 frames, 24.90 fps, 4360.25 kb/s, duration 2:25:13.08

Скриншот c названием фильма

Скриншоты

Пожалуйста кто скачал не сваливайте с раздачи!!!
 GOLD TORRENT! DOWNLOAD TRAFFIC DOES NOT CONSIDER! 
Torrent: Registered [ 2017-11-28 03:22 ]   · C7AA951BFD3F8FFF947EDF8BB15ACB4CBBB487FE

Download .torrent

Download

19 KB

Status: checked
Completed: 1 times
Size: 7.31 GB
Поделиться:
terms.php
[Profile] [PM]
Display posts:    
Reply to topic

Current time is: 28-Feb 21:14

All times are UTC + 3



You cannot post new topics in this forum
You cannot reply to topics in this forum
You cannot edit your posts in this forum
You cannot delete your posts in this forum
You cannot vote in polls in this forum
You cannot attach files in this forum
You can download files in this forum