24 часа на жизнь / 24 Hours to Live (Брайан Смрз / Brian Smrz) [2017, ЮАР, Гонконг, боевик, триллер, фэнтези, WEB-DLRip] Dub

Reply to topic
DL-List and Torrent activity [Update пиров]
Size:  1.46 GB   |    Registered:  3 years 2 months   |    Completed:  0 times
Seeders:  1  [  0 KB/s  ]   Show peers in full details
 
   
 
 
Author Message

admin ®

Gender: Male

Longevity: 3 years 4 months

Posts: 10149

Post 25-Nov-2017 16:35

[Quote]

-24 часа на жизнь / 24 Hours to Live-«Цель: выжить»- -Страна: ЮАР, Гонконг
Жанр: боевик, триллер, фэнтези
Год выпуска: 2017
Продолжительность: 01:33:37-Перевод: Профессиональный (дублированный) iTunes
Субтитры: нет
Оригинальная аудиодорожка: нет-Режиссер: Брайан Смрз / Brian Smrz-В ролях: Рутгер Хауэр, Итэн Хоук, Пол Андерсон, Лиам Каннингэм, Натали Болтт, Таня ван Граан, Хаким Кае-Казим, Сюй Цин, Эйдан Уайток, Эндрю Моргадо-Описание: Во время очередного задания погибает киллер, на совести которого много невинных жертв. Но таинственным образом он возвращается из потустороннего мира к жизни. И теперь у него есть только 24 часа, чтобы объединившись с убийцей, от руки которого он принял смерть, искупить вину и спасти свою душу.- - -Качество видео: WEB-DLRip / 24.Hours.to.Live.2017.1080p.WEB-DL.DD5.1.H264-FGT
Формат видео: AVI-Видео: XviD build 67, 720x304 (2.35:1), 23.976 fps, ~1837 kbps avg, 0.350 bit/pixel
Аудио: 48 kHz, AC3 Dolby Digital, 3/2 (L,C,R,l,r) + LFE ch, ~384 kbps avg-

MediaInfo

Complete name               : D:\Раздачи\24 часа на жизнь (2017) WEB-DLRip.ivanes20031987.aviFormat                      : AVIFormat/Info                 : Audio Video InterleaveFile size                   : 1.46 GiBDuration                    : 1 h 33 minOverall bit rate            : 2 229 kb/sWriting application         : VirtualDubMod 1.5.10.3 (build 2550/release)Writing library             : VirtualDubMod build 2550/releaseVideoID                          : 0Format                      : MPEG-4 VisualFormat profile              : Advanced Simple@L5Format settings, BVOP       : 1Format settings, QPel       : NoFormat settings, GMC        : No warppointsFormat settings, Matrix     : CustomCodec ID                    : XVIDCodec ID/Hint               : XviDDuration                    : 1 h 33 minBit rate                    : 1 837 kb/sWidth                       : 720 pixelsHeight                      : 304 pixelsDisplay aspect ratio        : 2.35:1Frame rate                  : 23.976 (24000/1001) FPSColor space                 : YUVChroma subsampling          : 4:2:0Bit depth                   : 8 bitsScan type                   : ProgressiveCompression mode            : LossyBits/(Pixel*Frame)          : 0.350Stream size                 : 1.20 GiB (82%)Writing library             : XviD 67AudioID                          : 1Format                      : AC-3Format/Info                 : Audio Coding 3Format settings, Endianness : BigCodec ID                    : 2000Duration                    : 1 h 33 minBit rate mode               : ConstantBit rate                    : 384 kb/sChannel(s)                  : 6 channelsChannel positions           : Front: L C R, Side: L R, LFESampling rate               : 48.0 kHzFrame rate                  : 31.250 FPS (1536 SPF)Bit depth                   : 16 bitsCompression mode            : LossyStream size                 : 256 MiB (17%)Alignment                   : Split accross interleavesInterleave, duration        : 42  ms (1.00 video frame)Interleave, preload duratio : 500  msService kind                : Complete Main

Скриншоты

 GOLD TORRENT! DOWNLOAD TRAFFIC DOES NOT CONSIDER! 
Torrent: Registered [ 2017-11-25 16:35 ]   · 525E3C3627D5A3F853A579F04F3548A94ECA36A2

Download .torrent

Download

15 KB

Status: checked
Completed: 0 times
Size: 1.46 GB
Поделиться:
terms.php
[Profile] [PM]
Display posts:    
Reply to topic

Current time is: 25-Feb 07:26

All times are UTC + 3



You cannot post new topics in this forum
You cannot reply to topics in this forum
You cannot edit your posts in this forum
You cannot delete your posts in this forum
You cannot vote in polls in this forum
You cannot attach files in this forum
You can download files in this forum