Старикам тут не место / No Country for Old Men (2007) BDRip 1080p | D

Reply to topic
DL-List and Torrent activity [Update пиров]
Size:  4.38 GB   |    Registered:  3 years 5 months   |    Completed:  0 times
Seeders:  48  [  0 KB/s  ]   Leechers:  9  [  0 KB/s  ]   Show peers in full details
 
   
 
 
Author Message

admin ®

Gender: Male

Longevity: 3 years 7 months

Posts: 10804

Post 25-Nov-2017 02:35

[Quote]

Информация о фильме
Название: Старикам тут не место
Оригинальное название: No Country for Old Men
Год выхода: 2007
Жанр: триллер, драма, криминал
Режиссер: Итэн Коэн, Джоэл Коэн / Ethan Coen, Joel Coen
В ролях: Томми Ли Джонс, Хавьер Бардем, Джош Бролин, Вуди Харрельсон, Келли Макдоналд, Гаррет Диллахант, Тесс Харпер, Бэрри Корбин, Стивен Рут, Роджер Бойс
О фильме:
Обычный работяга обнаруживает в пустыне гору трупов, грузовик, набитый героином, и соблазнительную сумму в два миллиона долларов наличными. Он решает взять деньги себе, и результатом становится волна насилия, которую не может остановить вся полиция Западного Техаса.

Выпущено: США
Продолжительность: 02:02:11
Перевод: Дублированный
Файл
Кодек: x264
Качество: BDRip 1080p
Видео: 1920x816, 4486 Kbps, 23.976 fps
Звук: 48 kHz, AC3, 6ch, 640 kbps
Субтитры: русские, английские

Скриншоты

MI

General
Unique ID : 187070463120700569688644362393260307925 (0x8CBC75EE0A47AB9CBFEA52332F46B5D5)
Complete name : Старикам тут не место.2007.BDRip.1080p.Rus.mkv
Format : Matroska
Format version : Version 2
File size : 4.38 GiB
Duration : 2h 2mn
Overall bit rate : 5 127 Kbps
Movie name : Старикам тут не место.2007
Encoded date : UTC 2012-04-07 11:29:50
Writing application : mkvmerge v5.4.0 ('Piper') built on Apr 4 2012 15:35:24
Writing library : libebml v1.2.3 + libmatroska v1.3.0
Video
ID : 1
Format : AVC
Format/Info : Advanced Video Codec
Format profile : High@L4.1
Format settings, CABAC : Yes
Format settings, ReFrames : 5 frames
Codec ID : V_MPEG4/ISO/AVC
Duration : 2h 2mn
Bit rate : 4 486 Kbps
Width : 1 920 pixels
Height : 816 pixels
Display aspect ratio : 2.35:1
Frame rate : 23.976 fps
Color space : YUV
Chroma subsampling : 4:2:0
Bit depth : 8 bits
Scan type : Progressive
Bits/(Pixel*Frame) : 0.119
Stream size : 3.74 GiB (86%)
Title : Rip by Boriy
Writing library : x264 core 122 r2184 5c85e0a
Encoding settings : cabac=1 / ref=5 / deblock=1:0:0 / analyse=0x3:0x113 / me=umh / subme=10 / psy=1 / psy_rd=1.00:0.10 / mixed_ref=1 / me_range=32 / chroma_me=1 / trellis=2 / 8x8dct=1 / cqm=0 / deadzone=21,11 / fast_pskip=0 / chroma_qp_offset=-3 / threads=12 / sliced_threads=0 / nr=0 / decimate=1 / interlaced=0 / bluray_compat=0 / constrained_intra=0 / bframes=5 / b_pyramid=2 / b_adapt=2 / b_bias=0 / direct=3 / weightb=1 / open_gop=0 / weightp=2 / keyint=240 / keyint_min=23 / scenecut=40 / intra_refresh=0 / rc_lookahead=60 / rc=2pass / mbtree=1 / bitrate=4486 / ratetol=1.0 / qcomp=0.60 / qpmin=0 / qpmax=69 / qpstep=4 / cplxblur=20.0 / qblur=0.5 / ip_ratio=1.40 / aq=1:1.00
Language : English
Default : Yes
Forced : No
Audio
ID : 2
Format : AC-3
Format/Info : Audio Coding 3
Mode extension : CM (complete main)
Codec ID : A_AC3
Duration : 2h 2mn
Bit rate mode : Constant
Bit rate : 640 Kbps
Channel(s) : 6 channels
Channel positions : Front: L C R, Side: L R, LFE
Sampling rate : 48.0 KHz
Bit depth : 16 bits
Compression mode : Lossy
Stream size : 559 MiB (12%)
Title : Дубляж
Language : Russian
Default : Yes
Forced : No
Text #1
ID : 3
Format : UTF-8
Codec ID : S_TEXT/UTF8
Codec ID/Info : UTF-8 Plain Text
Language : Russian
Default : No
Forced : No
Text #2
ID : 4
Format : UTF-8
Codec ID : S_TEXT/UTF8
Codec ID/Info : UTF-8 Plain Text
Language : English
Default : No
Forced : No
Menu
00:00:00.000 : en:
00:03:44.474 : en:
00:13:41.904 : en:
00:20:50.415 : en:
00:27:52.837 : en:
00:36:58.382 : en:
00:41:52.426 : en:
00:52:17.050 : en:
01:04:59.312 : en:
01:13:08.801 : en:
01:20:05.801 : en:
01:27:35.875 : en:
01:34:35.127 : en:
01:42:21.009 : en:
01:47:22.644 : en:
01:56:32.652 : en:
 GOLD TORRENT! DOWNLOAD TRAFFIC DOES NOT CONSIDER! 
Torrent: Registered [ 2017-11-25 02:35 ]   · BF1E2D056ECF20670977BB871DE30C50CCE03511

Download .torrent

Download

23 KB

Status: checked
Completed: 0 times
Size: 4.38 GB
Поделиться:
terms.php
[Profile] [PM]
Display posts:    
Reply to topic

Current time is: 06-May 03:11

All times are UTC + 3



You cannot post new topics in this forum
You cannot reply to topics in this forum
You cannot edit your posts in this forum
You cannot delete your posts in this forum
You cannot vote in polls in this forum
You cannot attach files in this forum
You can download files in this forum