Пассажиры / Passengers (Мортен Тильдум / Morten Tyldum) [2016, США, фантастика, драма, мелодрама, BDRemux 1080p] Dub + AVO + VO + Ukr + Original (Eng) + Sub (Rus, Ukr, Eng)

Reply to topic
DL-List and Torrent activity [Update пиров]
Size:  28.02 GB   |    Registered:  3 years 3 months   |    Completed:  0 times

Seeder not seen: Never

Leechers:  4  [  0 KB/s  ]   Show peers in full details
 
   
 
 
Author Message

admin ®

Gender: Male

Longevity: 3 years 5 months

Posts: 10157

Post 25-Nov-2017 01:54

[Quote]

Пассажиры / Passengers --Страна: США
Студия: Columbia Pictures, Company Films, LStar Capital, Original Film
Жанр: фантастика, драма, мелодрама
Год выпуска: 2016
Продолжительность: 01:56:11--Перевод 1: Профессиональный (дублированный) Blu-Ray
Перевод 2: Авторский (одноголосый закадровый) Ю. Сербин
Перевод 3: Одноголосый закадровый В. Назаров
Субтитры: русские (forced, full), украинские (forced, full), английские (full, SDH)
Оригинальная аудиодорожка: английский--Режиссер: Мортен Тильдум / Morten TyldumВ ролях: Дженнифер Лоуренс, Крис Пратт, Майкл Шин, Лоренс Фишбёрн, Энди Гарсиа, Винс Фостер, Кара Мишель Уайлдер, Конор Брофи, Джули Серда, Аврора Перрино--Описание: Космический корабль с 5 000 пассажирами на борту, погруженных на время полета в искусственный сон, держит курс на планету, которая станет для них новым домом. Всё идет по плану, но из-за сбоя системы двое пассажиров неожиданно просыпаются и понимают, что до конечного пункта путешествия 90 лет пути, и им суждено остаток жизни провести вдвоем в роскошных интерьерах корабля, оснащенного по последнему слову техники. Постепенно Джима и Аврору начинает непреодолимо тянуть друг к другу, но корабль попадает в беду, и теперь в их руках — жизнь и судьба всех обитателей корабля.--imdb | kinopoisk | Сэмпл--Тип релиза: BDRemux 1080p [Passengers 2016 1080p Blu-ray AVC DTS-HD MA 5.1-HDCLUB]
Контейнер: MKV
Видео: MPEG-4 AVC / 26866 kbps / 1920x1080 / 23,976 fps / 16:9 / High Profile 4.1
Аудио 1: Russian AC3 / 5.1 / 48 kHz / 640 kbps / 16 bits |Dub, Blu-Ray|
Аудио 2: Russian DTS-HD Master Audio / 5.1 / 48 kHz / 2128 kbps / 16-bit (DTS Core: 5.1 / 48 kHz / 1509 kbps / 16-bit) |Ю. Сербин|
Аудио 3: Russian DTS-HD Master Audio / 5.1 / 48 kHz / 2128 kbps / 16-bit (DTS Core: 5.1 / 48 kHz / 1509 kbps / 16-bit) |В. Назаров|
Аудио 4: Ukrainian AC3 / 5.1 / 48 kHz / 640 kbps / 16 bits |Dub, Blu-Ray|
Аудио 5: English DTS-HD Master Audio / 5.1 / 48 kHz / 2119 kbps / 16-bit (DTS Core: 5.1 / 48 kHz / 1509 kbps / 16-bit) |original|
Формат субтитров: softsub [SRT]

MediaInfo

Код:Общее
Уникальный идентификатор : 194027566928141006409540762231376400695 (0x91F859A15B31407CBD3007CE38A75137)
Полное имя : G:\HD\Пассажиры.2016.Blu-Ray.Remux.(1080p).mkv
Формат : Matroska
Версия формата : Version 4 / Version 2
Размер файла : 28,0 Гбайт
Продолжительность : 1 ч. 56 м.
Режим общего битрейта : Переменный
Общий поток : 34,5 Мбит/сек
Дата кодирования : UTC 2017-07-29 09:13:34
Программа кодирования : mkvmerge v14.0.0 ('Flow') 64bit
Библиотека кодирования : libebml v1.3.4 + libmatroska v1.4.5
Attachments : poster.jpgВидео
Идентификатор : 1
Формат : AVC
Формат/Информация : Advanced Video Codec
Профиль формата : High@L4.1
Параметр CABAC формата : Да
Параметр RefFrames формата : 2 кадра
Параметр GOP формата : M=1, N=10
Идентификатор кодека : V_MPEG4/ISO/AVC
Продолжительность : 1 ч. 56 м.
Вид битрейта : Переменный
Битрейт : 26,9 Мбит/сек
Ширина : 1920 пикселей
Высота : 1080 пикселей
Соотношение сторон : 16:9
Режим частоты кадров : Постоянный
Частота кадров : 23,976 (24000/1001) кадра/сек
Цветовое пространство : YUV
Субдискретизация насыщенности : 4:2:0
Битовая глубина : 8 бит
Тип развёртки : Прогрессивная
Бит/(Пиксели*Кадры) : 0.540
Размер потока : 21,8 Гбайт (78%)
Default : Да
Forced : НетАудио #1
Идентификатор : 2
Формат : AC-3
Формат/Информация : Audio Coding 3
Параметр Endianness формата : Big
Идентификатор кодека : A_AC3
Продолжительность : 1 ч. 56 м.
Вид битрейта : Постоянный
Битрейт : 640 Кбит/сек
Каналы : 6 каналов
Расположение каналов : Front: L C R, Side: L R, LFE
Частота : 48,0 КГц
Частота кадров : 31,250 кадров/сек (1536 SPF)
Битовая глубина : 16 бит
Метод сжатия : С потерями
Размер потока : 532 Мбайт (2%)
Заголовок : Dub, Blu-Ray
Язык : Russian
ServiceKind/String : Complete Main
Default : Да
Forced : НетАудио #2
Идентификатор : 3
Формат : DTS
Формат/Информация : Digital Theater Systems
Профиль формата : MA / Core
Режим : 16
Параметр Endianness формата : Big
Идентификатор кодека : A_DTS
Продолжительность : 1 ч. 56 м.
Вид битрейта : Переменный / Постоянный
Битрейт : 2128 Кбит/сек / 1509 Кбит/сек
Каналы : 6 каналов
Расположение каналов : Front: L C R, Side: L R, LFE
Частота : 48,0 КГц
Частота кадров : 93,750 кадра/сек (512 SPF)
Битовая глубина : 16 бит
Метод сжатия : Без потерь / Lossy
Размер потока : 1,73 Гбайт (6%)
Заголовок : Ю. Сербин
Язык : Russian
Default : Нет
Forced : НетАудио #3
Идентификатор : 4
Формат : DTS
Формат/Информация : Digital Theater Systems
Профиль формата : MA / Core
Режим : 16
Параметр Endianness формата : Big
Идентификатор кодека : A_DTS
Продолжительность : 1 ч. 56 м.
Вид битрейта : Переменный / Постоянный
Битрейт : 2128 Кбит/сек / 1509 Кбит/сек
Каналы : 6 каналов
Расположение каналов : Front: L C R, Side: L R, LFE
Частота : 48,0 КГц
Частота кадров : 93,750 кадра/сек (512 SPF)
Битовая глубина : 16 бит
Метод сжатия : Без потерь / Lossy
Размер потока : 1,73 Гбайт (6%)
Заголовок : В. Назаров
Язык : Russian
Default : Нет
Forced : НетАудио #4
Идентификатор : 5
Формат : AC-3
Формат/Информация : Audio Coding 3
Параметр Endianness формата : Big
Идентификатор кодека : A_AC3
Продолжительность : 1 ч. 56 м.
Вид битрейта : Постоянный
Битрейт : 640 Кбит/сек
Каналы : 6 каналов
Расположение каналов : Front: L C R, Side: L R, LFE
Частота : 48,0 КГц
Частота кадров : 31,250 кадров/сек (1536 SPF)
Битовая глубина : 16 бит
Метод сжатия : С потерями
Размер потока : 532 Мбайт (2%)
Заголовок : Dub, Blu-Ray
Язык : Ukrainian
ServiceKind/String : Complete Main
Default : Нет
Forced : НетАудио #5
Идентификатор : 6
Формат : DTS
Формат/Информация : Digital Theater Systems
Профиль формата : MA / Core
Режим : 16
Параметр Endianness формата : Big
Идентификатор кодека : A_DTS
Продолжительность : 1 ч. 56 м.
Вид битрейта : Переменный / Постоянный
Битрейт : 2119 Кбит/сек / 1509 Кбит/сек
Каналы : 6 каналов
Расположение каналов : Front: L C R, Side: L R, LFE
Частота : 48,0 КГц
Частота кадров : 93,750 кадра/сек (512 SPF)
Битовая глубина : 16 бит
Метод сжатия : Без потерь / Lossy
Размер потока : 1,72 Гбайт (6%)
Язык : English
Default : Нет
Forced : НетТекст #1
Идентификатор : 7
Формат : UTF-8
Идентификатор кодека : S_TEXT/UTF8
Идентификатор кодека/Информация : UTF-8 Plain Text
Продолжительность : 1 ч. 48 м.
Битрейт : 0 бит/сек
ElementCount : 13
Размер потока : 592 байт (0%)
Заголовок : forced
Язык : Russian
Default : Да
Forced : НетТекст #2
Идентификатор : 8
Формат : UTF-8
Идентификатор кодека : S_TEXT/UTF8
Идентификатор кодека/Информация : UTF-8 Plain Text
Продолжительность : 1 ч. 54 м.
Битрейт : 68 бит/сек
ElementCount : 1115
Размер потока : 57,7 Кбайт (0%)
Заголовок : full
Язык : Russian
Default : Нет
Forced : НетТекст #3
Идентификатор : 9
Формат : UTF-8
Идентификатор кодека : S_TEXT/UTF8
Идентификатор кодека/Информация : UTF-8 Plain Text
Продолжительность : 1 ч. 54 м.
Битрейт : 0 бит/сек
ElementCount : 9
Размер потока : 412 байт (0%)
Заголовок : forced
Язык : Ukrainian
Default : Нет
Forced : НетТекст #4
Идентификатор : 10
Формат : UTF-8
Идентификатор кодека : S_TEXT/UTF8
Идентификатор кодека/Информация : UTF-8 Plain Text
Продолжительность : 1 ч. 54 м.
Битрейт : 74 бит/сек
ElementCount : 1282
Размер потока : 62,7 Кбайт (0%)
Заголовок : full
Язык : Ukrainian
Default : Нет
Forced : НетТекст #5
Идентификатор : 11
Формат : UTF-8
Идентификатор кодека : S_TEXT/UTF8
Идентификатор кодека/Информация : UTF-8 Plain Text
Продолжительность : 1 ч. 45 м.
Битрейт : 49 бит/сек
ElementCount : 1280
Размер потока : 37,9 Кбайт (0%)
Заголовок : full
Язык : English
Default : Нет
Forced : НетТекст #6
Идентификатор : 12
Формат : UTF-8
Идентификатор кодека : S_TEXT/UTF8
Идентификатор кодека/Информация : UTF-8 Plain Text
Продолжительность : 1 ч. 48 м.
Битрейт : 57 бит/сек
ElementCount : 1619
Размер потока : 45,3 Кбайт (0%)
Заголовок : SDH
Язык : English
Default : Нет
Forced : НетМеню
00:00:00.000 : en:00:00:00.000
00:07:04.674 : en:00:07:04.674
00:14:38.211 : en:00:14:38.211
00:20:33.649 : en:00:20:33.649
00:25:06.338 : en:00:25:06.338
00:30:30.662 : en:00:30:30.662
00:40:47.987 : en:00:40:47.987
00:50:23.020 : en:00:50:23.020
00:57:28.945 : en:00:57:28.945
01:02:54.813 : en:01:02:54.813
01:10:47.160 : en:01:10:47.160
01:17:48.664 : en:01:17:48.664
01:25:17.029 : en:01:25:17.029
01:31:45.041 : en:01:31:45.041
01:37:53.242 : en:01:37:53.242
01:42:18.549 : en:01:42:18.549

Скриншоты

 GOLD TORRENT! DOWNLOAD TRAFFIC DOES NOT CONSIDER! 
Torrent: Registered [ 2017-11-25 01:54 ]   · D4FF8F72CAE5B428EAAE82E2B7135003769D0A61

Download .torrent

Download

71 KB

Status: checked
Completed: 0 times
Size: 28.02 GB
Поделиться:
terms.php
[Profile] [PM]
Display posts:    
Reply to topic

Current time is: 27-Feb 03:34

All times are UTC + 3



You cannot post new topics in this forum
You cannot reply to topics in this forum
You cannot edit your posts in this forum
You cannot delete your posts in this forum
You cannot vote in polls in this forum
You cannot attach files in this forum
You can download files in this forum