Безумный Макс: Дорога ярости / Mad Max: Fury Road (Джордж Миллер/George Miller) [2015, Австралия, США, боевик, фантастика, приключения, UHD BDRemux 2160p] Dub + MVO + 4x AVO + 2x VO + Ukr + Original (Eng) + Sub (Rus, Ukr, Eng)

Reply to topic
DL-List and Torrent activity [Update пиров]
Size:  76.51 GB   |    Registered:  3 years 3 months   |    Completed:  0 times
Seeders:  12  [  0 KB/s  ]   Leechers:  15  [  0 KB/s  ]   Show peers in full details
 
   
 
 
Author Message

admin ®

Gender: Male

Longevity: 3 years 5 months

Posts: 10222

Post 24-Nov-2017 00:47

[Quote]

Безумный Макс: Дорога ярости / Mad Max: Fury Road
--Страна: Австралия, США
Студия: Kennedy Miller Productions, Village Roadshow Pictures
Жанр: боевик, фантастика, приключения
Год выпуска: 2015
Продолжительность: 02:00:21--Перевод 1: Профессиональный (дублированный) Blu-Ray
Перевод 2: Профессиональный (многоголосый закадровый) Омикрон
Перевод 3: Авторский (одноголосый закадровый) А. Гаврилов
Перевод 4: Авторский (одноголосый закадровый) Ю. Сербин
Перевод 5: Авторский (одноголосый закадровый) Л. Володарский
Перевод 6: Авторский (одноголосый закадровый) А. Карповский
Перевод 7: Одноголосый закадровый Д. Есарев
Перевод 8: Одноголосый закадровый А. Матвеев
Субтитры: русские (8 видов), украинские (forced), английские (full, SDH, SDH-Colored)
Оригинальная аудиодорожка: английский--Режиссер: Джордж Миллер / George Miller
В ролях: Том Харди, Шарлиз Терон, Николас Холт, Хью Кияс-Бёрн, Райли Кио, Роузи Хантингтон-Уайтли, Зои Кравиц, Эбби Ли, Кортни Итон, Нэйтан Джонс--Описание: Преследуемый призраками беспокойного прошлого, Макс уверен, что лучший способ выжить — скитаться в одиночестве. Несмотря на это, он присоединяется к бунтарям, бегущим через всю пустыню на боевой фуре, под предводительством военачальника Фуриосы.
Они пытаются сбежать из Цитадели, страдающей от тирании Несмертного Джо, у которого они забрали кое-что очень ценное. Разъярённый военачальник бросает все свои силы на погоню за мятежниками, ступая на дорогу войны — дорогу ярости.--imdb | kinopoisk | Сэмпл--Тип релиза: UHD BDRemux 2160p [Mad Max: Fury Road 2015 2160p Remux HEVC TrueHD 7.1-FraMeSToR]
Контейнер: MKV
Видео: MPEG-H HEVC Video / 44100 kbps / 3840x2160 / 23.976 fps / 16:9 / Main 10 Profile 5.1 High / 4:2:0 / 10 bits / HDR / BT.2020 /
Аудио 1: Russian AC3 / 5.1 / 48 kHz / 448 kbps / 16 bits |Dub, Blu-Ray|
Аудио 2: Russian DTS-HD Master Audio / 7.1 / 48 kHz / 5872 kbps / 24-bit (DTS Core: 5.1 / 48 kHz / 1509 kbps / 24-bit) |MVO, Омикрон|
Аудио 3: Russian DTS-HD Master Audio / 7.1 / 48 kHz / 5869 kbps / 24-bit (DTS Core: 5.1 / 48 kHz / 1509 kbps / 24-bit) |А. Гаврилов|
Аудио 4: Russian DTS-HD Master Audio / 7.1 / 48 kHz / 5869 kbps / 24-bit (DTS Core: 5.1 / 48 kHz / 1509 kbps / 24-bit) |Ю. Сербин|
Аудио 5: Russian DTS-HD Master Audio / 7.1 / 48 kHz / 5871 kbps / 24-bit (DTS Core: 5.1 / 48 kHz / 1509 kbps / 24-bit) |Л. Володарский|
Аудио 6: Russian DTS-HD Master Audio / 7.1 / 48 kHz / 5870 kbps / 24-bit (DTS Core: 5.1 / 48 kHz / 1509 kbps / 24-bit) |А. Карповский|
Аудио 7: Russian DTS-HD Master Audio / 7.1 / 48 kHz / 5865 kbps / 24-bit (DTS Core: 5.1 / 48 kHz / 1509 kbps / 24-bit) |Д. Есарев|
Аудио 8: Russian DTS-HD Master Audio / 7.1 / 48 kHz / 5872 kbps / 24-bit (DTS Core: 5.1 / 48 kHz / 1509 kbps / 24-bit) |А. Матвеев|
Аудио 9: Ukrainian AC3 / 5.1 / 48 kHz / 640 kbps / 16 bits |Dub, R5|
Аудио 10: English DTS-HD Master Audio / 7.1 / 48 kHz / 4687 kbps / 24-bit (DTS Core: 5.1 / 48 kHz / 1509 kbps / 24-bit) |original|
Формат субтитров: softsub [SRT]

MediaInfo

Общее
Уникальный идентификатор                 : 214026607504550381047783545881057699508 (0xA104067566146A01B92BF48E472626B4)
Полное имя                               : G:\HD\Безумный Макс Дорога ярости.2015.UHD.BluRay.Remux.2160p.mkv
Формат                                   : Matroska
Версия формата                           : Version 4 / Version 2
Размер файла                             : 76,5 Гбайт
Продолжительность                        : 2 ч. 0 м.
Общий поток                              : 91,0 Мбит/сек
Дата кодирования                         : UTC 2017-10-22 16:37:33
Программа кодирования                    : mkvmerge v17.0.0 ('Be Ur Friend') 64-bit
Библиотека кодирования                   : libebml v1.3.5 + libmatroska v1.4.8
Attachments                              : poster.jpg
Видео
Идентификатор                            : 1
Формат                                   : HEVC
Формат/Информация                        : High Efficiency Video Coding
Профиль формата                          : Main 10@L5.1@High
Идентификатор кодека                     : V_MPEGH/ISO/HEVC
Продолжительность                        : 2 ч. 0 м.
Битрейт                                  : 44,1 Мбит/сек
Ширина                                   : 3840 пикселей
Высота                                   : 2160 пикселей
Соотношение сторон                       : 16:9
Режим частоты кадров                     : Постоянный
Частота кадров                           : 23,976 (24000/1001) кадра/сек
Цветовое пространство                    : YUV
Субдискретизация насыщенности            : 4:2:0 (Type 2)
Битовая глубина                          : 10 бит
Бит/(Пиксели*Кадры)                      : 0.222
Размер потока                            : 37,1 Гбайт (48%)
Default                                  : Да
Forced                                   : Нет
Цветовой диапазон                        : Limited
Основные цвета                           : BT.2020
Характеристики трансфера                 : PQ
Коэффициенты матрицы                     : BT.2020 non-constant
MasteringDisplay_ColorPrimaries          : R: x=0.680000 y=0.320000, G: x=0.265000 y=0.690000, B: x=0.150000 y=0.060000, White point: x=0.312700 y=0.329000
MasteringDisplay_Luminance               : min: 0.0050 cd/m2, max: 4000.0000 cd/m2
MaxCLL                                   : 9918 cd/m2
MaxFALL                                  : 3241 cd/m2
Аудио #1
Идентификатор                            : 2
Формат                                   : AC-3
Формат/Информация                        : Audio Coding 3
Параметр Endianness формата              : Big
Идентификатор кодека                     : A_AC3
Продолжительность                        : 2 ч. 0 м.
Вид битрейта                             : Постоянный
Битрейт                                  : 448 Кбит/сек
Каналы                                   : 6 каналов
Расположение каналов                     : Front: L C R, Side: L R, LFE
Частота                                  : 48,0 КГц
Частота кадров                           : 31,250 кадров/сек (1536 SPF)
Битовая глубина                          : 16 бит
Метод сжатия                             : С потерями
Размер потока                            : 386 Мбайт (0%)
Заголовок                                : Dub, Blu-Ray
Язык                                     : Russian
ServiceKind/String                       : Complete Main
Default                                  : Да
Forced                                   : Нет
Аудио #2
Идентификатор                            : 3
Формат                                   : DTS
Формат/Информация                        : Digital Theater Systems
Профиль формата                          : MA / Core
Режим                                    : 16
Параметр Endianness формата              : Big
Идентификатор кодека                     : A_DTS
Продолжительность                        : 2 ч. 0 м.
Вид битрейта                             : Переменный / Постоянный
Битрейт                                  : 5872 Кбит/сек / 1509 Кбит/сек
Каналы                                   : 8 каналов / 6 каналов
Расположение каналов                     : Front: L C R, Side: L R, Back: L R, LFE / Front: L C R, Side: L R, LFE
Частота                                  : 48,0 КГц
Частота кадров                           : 93,750 кадра/сек (512 SPF)
Битовая глубина                          : 24 бит
Метод сжатия                             : Без потерь / Lossy
Размер потока                            : 4,94 Гбайт (6%)
Заголовок                                : MVO, Омикрон
Язык                                     : Russian
Default                                  : Нет
Forced                                   : Нет
Аудио #3
Идентификатор                            : 4
Формат                                   : DTS
Формат/Информация                        : Digital Theater Systems
Профиль формата                          : MA / Core
Режим                                    : 16
Параметр Endianness формата              : Big
Идентификатор кодека                     : A_DTS
Продолжительность                        : 2 ч. 0 м.
Вид битрейта                             : Переменный / Постоянный
Битрейт                                  : 5869 Кбит/сек / 1509 Кбит/сек
Каналы                                   : 8 каналов / 6 каналов
Расположение каналов                     : Front: L C R, Side: L R, Back: L R, LFE / Front: L C R, Side: L R, LFE
Частота                                  : 48,0 КГц
Частота кадров                           : 93,750 кадра/сек (512 SPF)
Битовая глубина                          : 24 бит
Метод сжатия                             : Без потерь / Lossy
Размер потока                            : 4,93 Гбайт (6%)
Заголовок                                : А. Гаврилов
Язык                                     : Russian
Default                                  : Нет
Forced                                   : Нет
Аудио #4
Идентификатор                            : 5
Формат                                   : DTS
Формат/Информация                        : Digital Theater Systems
Профиль формата                          : MA / Core
Режим                                    : 16
Параметр Endianness формата              : Big
Идентификатор кодека                     : A_DTS
Продолжительность                        : 2 ч. 0 м.
Вид битрейта                             : Переменный / Постоянный
Битрейт                                  : 5869 Кбит/сек / 1509 Кбит/сек
Каналы                                   : 8 каналов / 6 каналов
Расположение каналов                     : Front: L C R, Side: L R, Back: L R, LFE / Front: L C R, Side: L R, LFE
Частота                                  : 48,0 КГц
Частота кадров                           : 93,750 кадра/сек (512 SPF)
Битовая глубина                          : 24 бит
Метод сжатия                             : Без потерь / Lossy
Размер потока                            : 4,93 Гбайт (6%)
Заголовок                                : Ю. Сербин
Язык                                     : Russian
Default                                  : Нет
Forced                                   : Нет
Аудио #5
Идентификатор                            : 6
Формат                                   : DTS
Формат/Информация                        : Digital Theater Systems
Профиль формата                          : MA / Core
Режим                                    : 16
Параметр Endianness формата              : Big
Идентификатор кодека                     : A_DTS
Продолжительность                        : 2 ч. 0 м.
Вид битрейта                             : Переменный / Постоянный
Битрейт                                  : 5871 Кбит/сек / 1509 Кбит/сек
Каналы                                   : 8 каналов / 6 каналов
Расположение каналов                     : Front: L C R, Side: L R, Back: L R, LFE / Front: L C R, Side: L R, LFE
Частота                                  : 48,0 КГц
Частота кадров                           : 93,750 кадра/сек (512 SPF)
Битовая глубина                          : 24 бит
Метод сжатия                             : Без потерь / Lossy
Размер потока                            : 4,94 Гбайт (6%)
Заголовок                                : Л. Володарский
Язык                                     : Russian
Default                                  : Нет
Forced                                   : Нет
Аудио #6
Идентификатор                            : 7
Формат                                   : DTS
Формат/Информация                        : Digital Theater Systems
Профиль формата                          : MA / Core
Режим                                    : 16
Параметр Endianness формата              : Big
Идентификатор кодека                     : A_DTS
Продолжительность                        : 2 ч. 0 м.
Вид битрейта                             : Переменный / Постоянный
Битрейт                                  : 5870 Кбит/сек / 1509 Кбит/сек
Каналы                                   : 8 каналов / 6 каналов
Расположение каналов                     : Front: L C R, Side: L R, Back: L R, LFE / Front: L C R, Side: L R, LFE
Частота                                  : 48,0 КГц
Частота кадров                           : 93,750 кадра/сек (512 SPF)
Битовая глубина                          : 24 бит
Метод сжатия                             : Без потерь / Lossy
Размер потока                            : 4,93 Гбайт (6%)
Заголовок                                : А. Карповский
Язык                                     : Russian
Default                                  : Нет
Forced                                   : Нет
Аудио #7
Идентификатор                            : 8
Формат                                   : DTS
Формат/Информация                        : Digital Theater Systems
Профиль формата                          : MA / Core
Режим                                    : 16
Параметр Endianness формата              : Big
Идентификатор кодека                     : A_DTS
Продолжительность                        : 2 ч. 0 м.
Вид битрейта                             : Переменный / Постоянный
Битрейт                                  : 5865 Кбит/сек / 1509 Кбит/сек
Каналы                                   : 8 каналов / 6 каналов
Расположение каналов                     : Front: L C R, Side: L R, Back: L R, LFE / Front: L C R, Side: L R, LFE
Частота                                  : 48,0 КГц
Частота кадров                           : 93,750 кадра/сек (512 SPF)
Битовая глубина                          : 24 бит
Метод сжатия                             : Без потерь / Lossy
Размер потока                            : 4,93 Гбайт (6%)
Заголовок                                : Д. Есарев
Язык                                     : Russian
Default                                  : Нет
Forced                                   : Нет
Аудио #8
Идентификатор                            : 9
Формат                                   : DTS
Формат/Информация                        : Digital Theater Systems
Профиль формата                          : MA / Core
Режим                                    : 16
Параметр Endianness формата              : Big
Идентификатор кодека                     : A_DTS
Продолжительность                        : 2 ч. 0 м.
Вид битрейта                             : Переменный / Постоянный
Битрейт                                  : 5872 Кбит/сек / 1509 Кбит/сек
Каналы                                   : 8 каналов / 6 каналов
Расположение каналов                     : Front: L C R, Side: L R, Back: L R, LFE / Front: L C R, Side: L R, LFE
Частота                                  : 48,0 КГц
Частота кадров                           : 93,750 кадра/сек (512 SPF)
Битовая глубина                          : 24 бит
Метод сжатия                             : Без потерь / Lossy
Размер потока                            : 4,94 Гбайт (6%)
Заголовок                                : А. Матвеев
Язык                                     : Russian
Default                                  : Нет
Forced                                   : Нет
Аудио #9
Идентификатор                            : 10
Формат                                   : AC-3
Формат/Информация                        : Audio Coding 3
Параметр Endianness формата              : Big
Идентификатор кодека                     : A_AC3
Продолжительность                        : 2 ч. 0 м.
Вид битрейта                             : Постоянный
Битрейт                                  : 640 Кбит/сек
Каналы                                   : 6 каналов
Расположение каналов                     : Front: L C R, Side: L R, LFE
Частота                                  : 48,0 КГц
Частота кадров                           : 31,250 кадров/сек (1536 SPF)
Битовая глубина                          : 16 бит
Метод сжатия                             : С потерями
Размер потока                            : 551 Мбайт (1%)
Заголовок                                : Dub, R5
Язык                                     : Ukrainian
ServiceKind/String                       : Complete Main
Default                                  : Нет
Forced                                   : Нет
Аудио #10
Идентификатор                            : 11
Формат                                   : DTS
Формат/Информация                        : Digital Theater Systems
Профиль формата                          : MA / Core
Режим                                    : 16
Параметр Endianness формата              : Big
Идентификатор кодека                     : A_DTS
Продолжительность                        : 2 ч. 0 м.
Вид битрейта                             : Переменный / Постоянный
Битрейт                                  : 4687 Кбит/сек / 1509 Кбит/сек
Каналы                                   : 8 каналов / 6 каналов
Расположение каналов                     : Front: L C R, Side: L R, Back: L R, LFE / Front: L C R, Side: L R, LFE
Частота                                  : 48,0 КГц
Частота кадров                           : 93,750 кадра/сек (512 SPF)
Битовая глубина                          : 24 бит
Метод сжатия                             : Без потерь / Lossy
Размер потока                            : 3,94 Гбайт (5%)
Язык                                     : English
Default                                  : Нет
Forced                                   : Нет
Текст #1
Идентификатор                            : 12
Формат                                   : UTF-8
Идентификатор кодека                     : S_TEXT/UTF8
Идентификатор кодека/Информация          : UTF-8 Plain Text
Продолжительность                        : 1 ч. 53 м.
Битрейт                                  : 0 бит/сек
ElementCount                             : 9
Размер потока                            : 405 байт (0%)
Заголовок                                : forced, Blu-Ray
Язык                                     : Russian
Default                                  : Да
Forced                                   : Нет
Текст #2
Идентификатор                            : 13
Формат                                   : UTF-8
Идентификатор кодека                     : S_TEXT/UTF8
Идентификатор кодека/Информация          : UTF-8 Plain Text
Продолжительность                        : 1 ч. 57 м.
Битрейт                                  : 34 бит/сек
ElementCount                             : 876
Размер потока                            : 29,5 Кбайт (0%)
Заголовок                                : full, Blu-Ray
Язык                                     : Russian
Default                                  : Нет
Forced                                   : Нет
Текст #3
Идентификатор                            : 14
Формат                                   : UTF-8
Идентификатор кодека                     : S_TEXT/UTF8
Идентификатор кодека/Информация          : UTF-8 Plain Text
Продолжительность                        : 1 ч. 53 м.
Битрейт                                  : 39 бит/сек
ElementCount                             : 873
Размер потока                            : 32,9 Кбайт (0%)
Заголовок                                : А. Матвеев
Язык                                     : Russian
Default                                  : Нет
Forced                                   : Нет
Текст #4
Идентификатор                            : 15
Формат                                   : UTF-8
Идентификатор кодека                     : S_TEXT/UTF8
Идентификатор кодека/Информация          : UTF-8 Plain Text
Продолжительность                        : 1 ч. 53 м.
Битрейт                                  : 38 бит/сек
ElementCount                             : 857
Размер потока                            : 32,0 Кбайт (0%)
Заголовок                                : А. Кузнецова
Язык                                     : Russian
Default                                  : Нет
Forced                                   : Нет
Текст #5
Идентификатор                            : 16
Формат                                   : UTF-8
Идентификатор кодека                     : S_TEXT/UTF8
Идентификатор кодека/Информация          : UTF-8 Plain Text
Продолжительность                        : 1 ч. 53 м.
Битрейт                                  : 40 бит/сек
ElementCount                             : 852
Размер потока                            : 33,5 Кбайт (0%)
Заголовок                                : Е. Воронин
Язык                                     : Russian
Default                                  : Нет
Forced                                   : Нет
Текст #6
Идентификатор                            : 17
Формат                                   : UTF-8
Идентификатор кодека                     : S_TEXT/UTF8
Идентификатор кодека/Информация          : UTF-8 Plain Text
Продолжительность                        : 1 ч. 53 м.
Битрейт                                  : 50 бит/сек
ElementCount                             : 1110
Размер потока                            : 41,4 Кбайт (0%)
Заголовок                                : Е. Воронин SDH
Язык                                     : Russian
Default                                  : Нет
Forced                                   : Нет
Текст #7
Идентификатор                            : 18
Формат                                   : UTF-8
Идентификатор кодека                     : S_TEXT/UTF8
Идентификатор кодека/Информация          : UTF-8 Plain Text
Продолжительность                        : 1 ч. 52 м.
Битрейт                                  : 38 бит/сек
ElementCount                             : 842
Размер потока                            : 31,7 Кбайт (0%)
Заголовок                                : Notabenoid
Язык                                     : Russian
Default                                  : Нет
Forced                                   : Нет
Текст #8
Идентификатор                            : 19
Формат                                   : UTF-8
Идентификатор кодека                     : S_TEXT/UTF8
Идентификатор кодека/Информация          : UTF-8 Plain Text
Продолжительность                        : 1 ч. 51 м.
Битрейт                                  : 42 бит/сек
ElementCount                             : 914
Размер потока                            : 34,6 Кбайт (0%)
Заголовок                                : Notabenoid 2
Язык                                     : Russian
Default                                  : Нет
Forced                                   : Нет
Текст #9
Идентификатор                            : 20
Формат                                   : UTF-8
Идентификатор кодека                     : S_TEXT/UTF8
Идентификатор кодека/Информация          : UTF-8 Plain Text
Продолжительность                        : 1 ч. 53 м.
Битрейт                                  : 0 бит/сек
ElementCount                             : 11
Размер потока                            : 501 байт (0%)
Заголовок                                : forced
Язык                                     : Ukrainian
Default                                  : Нет
Forced                                   : Нет
Текст #10
Идентификатор                            : 21
Формат                                   : UTF-8
Идентификатор кодека                     : S_TEXT/UTF8
Идентификатор кодека/Информация          : UTF-8 Plain Text
Продолжительность                        : 1 ч. 51 м.
Битрейт                                  : 24 бит/сек
ElementCount                             : 908
Размер потока                            : 19,9 Кбайт (0%)
Заголовок                                : full
Язык                                     : English
Default                                  : Нет
Forced                                   : Нет
Текст #11
Идентификатор                            : 22
Формат                                   : UTF-8
Идентификатор кодека                     : S_TEXT/UTF8
Идентификатор кодека/Информация          : UTF-8 Plain Text
Продолжительность                        : 2 ч. 0 м.
Битрейт                                  : 28 бит/сек
ElementCount                             : 1167
Размер потока                            : 24,6 Кбайт (0%)
Заголовок                                : SDH
Язык                                     : English
Default                                  : Нет
Forced                                   : Нет
Текст #12
Идентификатор                            : 23
Формат                                   : UTF-8
Идентификатор кодека                     : S_TEXT/UTF8
Идентификатор кодека/Информация          : UTF-8 Plain Text
Продолжительность                        : 1 ч. 51 м.
Битрейт                                  : 44 бит/сек
ElementCount                             : 1166
Размер потока                            : 36,3 Кбайт (0%)
Заголовок                                : SDH-Colored
Язык                                     : English
Default                                  : Нет
Forced                                   : Нет
Меню
00:00:00.000                             : en:Chapter 01
00:10:41.474                             : en:Chapter 02
00:19:05.436                             : en:Chapter 03
00:30:11.309                             : en:Chapter 04
00:42:54.614                             : en:Chapter 05
00:49:32.344                             : en:Chapter 06
00:59:54.174                             : en:Chapter 07
01:13:01.544                             : en:Chapter 08
01:22:07.923                             : en:Chapter 09
01:30:01.730                             : en:Chapter 10
01:40:38.866                             : en:Chapter 11
01:49:11.545                             : en:Chapter 12
01:53:05.278                             : en:Chapter 13

Скриншоты


 GOLD TORRENT! DOWNLOAD TRAFFIC DOES NOT CONSIDER! 
Torrent: Registered [ 2017-11-24 00:47 ]   · 9C8398CDA4DA3925458E9EB02412CE419EF9C483

Download .torrent

Download

192 KB

Status: checked
Completed: 0 times
Size: 76.51 GB
Поделиться:
terms.php
[Profile] [PM]
Display posts:    
Reply to topic

Current time is: 05-Mar 20:11

All times are UTC + 3



You cannot post new topics in this forum
You cannot reply to topics in this forum
You cannot edit your posts in this forum
You cannot delete your posts in this forum
You cannot vote in polls in this forum
You cannot attach files in this forum
You can download files in this forum