Выживший / The Revenant (Алехандро Гонсалес Иньярриту / Alejandro Gonzalez Inarritu) [2015, США, Триллер, драма, приключения, вестерн, BDRip 1080p] [Open Matte] Dub + AVO + VO + Sub (Rus, Eng) + Original (Eng)

Reply to topic
DL-List and Torrent activity [Update пиров]
Size:  24.66 GB   |    Registered:  3 years 3 months   |    Completed:  0 times

Seeder not seen: Never

Leechers:  9  [  0 KB/s  ]   Show peers in full details
 
   
 
 
Author Message

admin ®

Gender: Male

Longevity: 3 years 5 months

Posts: 10168

Post 23-Nov-2017 22:27

[Quote]

Выживший / The Revenant / Open Matte
Страна: США
Студия: Anonymous Content, Appian Way, New Regency Pictures, RatPac Entertainment, Soho VFX
Жанр: Триллер, драма, приключения, вестерн
Год выпуска: 2015
Продолжительность: 02:36:21
Перевод: Профессиональный (дублированный) Blu-ray NOR
Перевод 2: Профессиональный (дублированный) Дубляж, krat11
Перевод 3: Авторский (одноголосый закадровый) Ю. Сербин
Перевод 4: Одноголосый закадровый Д. Есарев
Субтитры: Russian (Forced, iTunes), Russian (iTunes), Ukrainian (Forced, iTunes), Ukrainian (iTunes), English (Forced, iTunes), English (iTunes)
Оригинальная аудиодорожка: английский
Режиссер: Алехандро Гонсалес Иньярриту / Alejandro Gonzalez Inarritu
В ролях: Леонардо ДиКаприо, Том Харди, Донал Глисон, Уилл Поултер, Пол Андерсон, Лукас Хаас, Брэд Картер, Кристоффер Йонер, Брендан Флетчер, Хавьер Ботет, Кори Грим, Роберт Молони, Винсент Леклерк, Джошуа Бёрдж, МакКалеб Барнетт, Рэй Чейз, Тимоти Лайл, Эдриан Макморран, Дэйв Бурчилл, Майкл Виллар
Описание: Охотник Хью Гласс серьезно ранен на неизведанных просторах американского Дикого Запада. Товарищ Хью по отряду покорителей новых земель Джон Фицжеральд предательски оставляет его умирать в одиночестве. Теперь у Гласса осталось только одно оружие – его сила воли. Он готов бросить вызов первобытной природе, суровой зиме и враждебным племенам индейцев, только чтобы выжить и отомстить Фицжеральду.
Сравнение

Тип релиза: BDRip 1080p
Контейнер: MKV
Видео: MPEG-4 AVC, 15,3 Мбит/сек, 1920x1080, 23,976 fps
Аудио: Russian: 48 kHz, DTS, 3/2 (L,C,R,l,r) + LFE ch, ~768.00 kbps avg |Дубляж, Blu-ray NOR|
Аудио 2: Russian: 48 kHz, DTS, 3/2 (L,C,R,l,r) + LFE ch, ~1536.00 kbps avg |Дубляж, krat11|
Аудио 3: Ukrainian: 48 kHz, AC3, 3/2 (L,C,R,l,r) + LFE ch, ~448.00 kbps avg |Дубляж, Blu-ray NOR|
Аудио 4: Russian: 48 kHz, DTS, 3/2 (L,C,R,l,r) + LFE ch, ~1536.00 kbps avg |Авторский одноголосый закадровый, Ю. Сербин|
Аудио 5: Russian: 48 kHz, DTS, 3/2 (L,C,R,l,r) + LFE ch, ~1536.00 kbps avg |Одноголосый закадровый, Д. Есарев|
Аудио 6: English: 48 kHz, DTS, 3/2 (L,C,R,l,r) + LFE ch, ~1536.00 kbps avg |Оригинал|

MediaInfo

Общее
Уникальный идентификатор : 232336650466066435835810785946366733366 (0xAECA6946715F8468A8F4AD42591D6C36)
Полное имя : E:\The.Revenant.2015.1080p.BluRay.4xRus.Ukr.Eng.HDCLUB.mkv
Формат : Matroska
Версия формата : Version 4 / Version 2
Размер файла : 24,7 Гбайт
Продолжительность : 2 ч. 36 м.
Общий поток : 22,5 Мбит/сек
Дата кодирования : UTC 2016-11-14 06:43:24
Программа кодирования : mkvmerge v8.3.0 ('Over the Horizon') 64bit
Библиотека кодирования : libebml v1.3.1 + libmatroska v1.4.2
Обложка : Yes
Attachments : cover
Видео
Идентификатор : 1
Формат : AVC
Формат/Информация : Advanced Video Codec
Профиль формата : High@L4.1
Параметр CABAC формата : Да
Параметр ReFrames формата : 4 кадра
Идентификатор кодека : V_MPEG4/ISO/AVC
Продолжительность : 2 ч. 36 м.
Битрейт : 15,3 Мбит/сек
Ширина : 1920 пикселей
Высота : 1080 пикселей
Соотношение сторон : 16:9
Режим частоты кадров : Постоянный
Частота кадров : 23,976 (24000/1001) кадра/сек
Цветовое пространство : YUV
Субдискретизация насыщенности : 4:2:0
Битовая глубина : 8 бит
Тип развёртки : Прогрессивная
Бит/(Пиксели*Кадры) : 0.308
Размер потока : 16,7 Гбайт (68%)
Библиотека кодирования : x264 core 148 r2721 72d53ab
Настройки программы : cabac=1 / ref=4 / deblock=1:-3:-3 / analyse=0x3:0x133 / me=umh / subme=10 / psy=1 / psy_rd=1.00:0.00 / mixed_ref=1 / me_range=24 / chroma_me=1 / trellis=2 / 8x8dct=1 / cqm=0 / deadzone=21,11 / fast_pskip=1 / chroma_qp_offset=-2 / threads=12 / lookahead_threads=2 / sliced_threads=0 / nr=0 / decimate=1 / interlaced=0 / bluray_compat=0 / constrained_intra=0 / bframes=8 / b_pyramid=2 / b_adapt=2 / b_bias=0 / direct=3 / weightb=1 / open_gop=0 / weightp=2 / keyint=240 / keyint_min=23 / scenecut=40 / intra_refresh=0 / rc_lookahead=60 / rc=crf / mbtree=0 / crf=15.6 / qcomp=0.60 / qpmin=0 / qpmax=69 / qpstep=4 / vbv_maxrate=62500 / vbv_bufsize=78125 / crf_max=0.0 / nal_hrd=none / filler=0 / ip_ratio=1.40 / pb_ratio=1.30 / aq=1:1.00
Default : Да
Forced : Нет
Аудио #1
Идентификатор : 2
Формат : DTS
Формат/Информация : Digital Theater Systems
Режим : 16
Параметр Endianness формата : Big
Идентификатор кодека : A_DTS
Продолжительность : 2 ч. 36 м.
Вид битрейта : Постоянный
Битрейт : 768 Кбит/сек
Каналы : 6 каналов
Расположение каналов : Front: L C R, Side: L R, LFE
Частота : 48,0 КГц
Частота кадров : 93,750 кадра/сек (512 spf)
Битовая глубина : 24 бит
Метод сжатия : С потерями
Размер потока : 859 Мбайт (3%)
Заголовок : DUB, Blu-ray NOR
Язык : Russian
Default : Да
Forced : Нет
Аудио #2
Идентификатор : 3
Формат : DTS
Формат/Информация : Digital Theater Systems
Режим : 16
Параметр Endianness формата : Big
Идентификатор кодека : A_DTS
Продолжительность : 2 ч. 36 м.
Вид битрейта : Постоянный
Битрейт : 1509 Кбит/сек
Каналы : 6 каналов
Расположение каналов : Front: L C R, Side: L R, LFE
Частота : 48,0 КГц
Частота кадров : 93,750 кадра/сек (512 spf)
Битовая глубина : 24 бит
Метод сжатия : С потерями
Размер потока : 1,65 Гбайт (7%)
Заголовок : DUB, krat11
Язык : Russian
Default : Нет
Forced : Нет
Аудио #3
Идентификатор : 4
Формат : AC-3
Формат/Информация : Audio Coding 3
Расширение режима : CM (complete main)
Параметр Endianness формата : Big
Идентификатор кодека : A_AC3
Продолжительность : 2 ч. 36 м.
Вид битрейта : Постоянный
Битрейт : 448 Кбит/сек
Каналы : 6 каналов
Расположение каналов : Front: L C R, Side: L R, LFE
Частота : 48,0 КГц
Частота кадров : 31,250 кадров/сек (1536 spf)
Метод сжатия : С потерями
Размер потока : 501 Мбайт (2%)
Заголовок : DUB, Blu-ray NOR
Язык : Ukrainian
Default : Нет
Forced : Нет
Аудио #4
Идентификатор : 5
Формат : DTS
Формат/Информация : Digital Theater Systems
Режим : 16
Параметр Endianness формата : Big
Идентификатор кодека : A_DTS
Продолжительность : 2 ч. 36 м.
Вид битрейта : Постоянный
Битрейт : 1509 Кбит/сек
Каналы : 6 каналов
Расположение каналов : Front: L C R, Side: L R, LFE
Частота : 48,0 КГц
Частота кадров : 93,750 кадра/сек (512 spf)
Битовая глубина : 24 бит
Метод сжатия : С потерями
Размер потока : 1,65 Гбайт (7%)
Заголовок : AVO, Y.Serbin
Язык : Russian
Default : Нет
Forced : Нет
Аудио #5
Идентификатор : 6
Формат : DTS
Формат/Информация : Digital Theater Systems
Режим : 16
Параметр Endianness формата : Big
Идентификатор кодека : A_DTS
Продолжительность : 2 ч. 36 м.
Вид битрейта : Постоянный
Битрейт : 1509 Кбит/сек
Каналы : 6 каналов
Расположение каналов : Front: L C R, Side: L R, LFE
Частота : 48,0 КГц
Частота кадров : 93,750 кадра/сек (512 spf)
Битовая глубина : 24 бит
Метод сжатия : С потерями
Размер потока : 1,65 Гбайт (7%)
Заголовок : AVO, D.Esarev
Язык : Russian
Default : Нет
Forced : Нет
Аудио #6
Идентификатор : 7
Формат : DTS
Формат/Информация : Digital Theater Systems
Режим : 16
Параметр Endianness формата : Big
Идентификатор кодека : A_DTS
Продолжительность : 2 ч. 36 м.
Вид битрейта : Постоянный
Битрейт : 1509 Кбит/сек
Каналы : 6 каналов
Расположение каналов : Front: L C R, Side: L R, LFE
Частота : 48,0 КГц
Частота кадров : 93,750 кадра/сек (512 spf)
Битовая глубина : 24 бит
Метод сжатия : С потерями
Размер потока : 1,65 Гбайт (7%)
Заголовок : Original
Язык : English
Default : Нет
Forced : Нет
Текст #1
Идентификатор : 8
Формат : UTF-8
Идентификатор кодека : S_TEXT/UTF8
Идентификатор кодека/Информация : UTF-8 Plain Text
Продолжительность : 2 ч. 35 м.
Битрейт : 5 бит/сек
Count of elements : 146
Размер потока : 6,05 Кбайт (0%)
Заголовок : Forced, iTunes
Язык : Russian
Default : Да
Forced : Нет
Текст #2
Идентификатор : 9
Формат : UTF-8
Идентификатор кодека : S_TEXT/UTF8
Идентификатор кодека/Информация : UTF-8 Plain Text
Продолжительность : 2 ч. 35 м.
Битрейт : 37 бит/сек
Count of elements : 847
Размер потока : 43,0 Кбайт (0%)
Заголовок : Full, iTunes
Язык : Russian
Default : Нет
Forced : Нет
Текст #3
Идентификатор : 10
Формат : UTF-8
Идентификатор кодека : S_TEXT/UTF8
Идентификатор кодека/Информация : UTF-8 Plain Text
Продолжительность : 2 ч. 35 м.
Битрейт : 5 бит/сек
Count of elements : 146
Размер потока : 5,76 Кбайт (0%)
Заголовок : Forced, iTunes
Язык : Ukrainian
Default : Нет
Forced : Нет
Текст #4
Идентификатор : 11
Формат : UTF-8
Идентификатор кодека : S_TEXT/UTF8
Идентификатор кодека/Информация : UTF-8 Plain Text
Продолжительность : 2 ч. 35 м.
Битрейт : 38 бит/сек
Count of elements : 846
Размер потока : 44,5 Кбайт (0%)
Заголовок : Full, iTunes
Язык : Ukrainian
Default : Нет
Forced : Нет
Текст #5
Идентификатор : 12
Формат : UTF-8
Идентификатор кодека : S_TEXT/UTF8
Идентификатор кодека/Информация : UTF-8 Plain Text
Продолжительность : 2 ч. 35 м.
Битрейт : 3 бит/сек
Count of elements : 135
Размер потока : 3,56 Кбайт (0%)
Заголовок : Forced, iTunes
Язык : English
Default : Нет
Forced : Нет
Текст #6
Идентификатор : 13
Формат : UTF-8
Идентификатор кодека : S_TEXT/UTF8
Идентификатор кодека/Информация : UTF-8 Plain Text
Продолжительность : 2 ч. 35 м.
Битрейт : 23 бит/сек
Count of elements : 834
Размер потока : 26,6 Кбайт (0%)
Заголовок : Full, iTunes
Язык : English
Default : Нет
Forced : Нет
Текст #7
Идентификатор : 14
Формат : UTF-8
Идентификатор кодека : S_TEXT/UTF8
Идентификатор кодека/Информация : UTF-8 Plain Text
Продолжительность : 2 ч. 17 м.
Битрейт : 22 бит/сек
Count of elements : 846
Размер потока : 23,2 Кбайт (0%)
Язык : English
Default : Нет
Forced : Нет
Текст #8
Идентификатор : 15
Формат : UTF-8
Идентификатор кодека : S_TEXT/UTF8
Идентификатор кодека/Информация : UTF-8 Plain Text
Продолжительность : 2 ч. 25 м.
Битрейт : 27 бит/сек
Count of elements : 1140
Размер потока : 29,0 Кбайт (0%)
Заголовок : Full SDH, iTunes
Язык : English
Default : Нет
Forced : Нет
Меню
00:00:00.000 : :CHAPTER 01
00:05:04.846 : :CHAPTER 02
00:07:58.311 : :CHAPTER 03
00:13:18.965 : :CHAPTER 04
00:21:10.686 : :CHAPTER 05
00:28:21.658 : :CHAPTER 06
00:37:07.767 : :CHAPTER 07
00:44:00.346 : :CHAPTER 08
00:48:14.975 : :CHAPTER 09
00:51:42.266 : :CHAPTER 10
00:56:51.033 : :CHAPTER 11
00:59:50.754 : :CHAPTER 12
01:03:31.766 : :CHAPTER 13
01:11:52.433 : :CHAPTER 14
01:16:36.133 : :CHAPTER 15
01:21:22.377 : :CHAPTER 16
01:28:31.139 : :CHAPTER 17
01:37:29.969 : :CHAPTER 18
01:48:44.643 : :CHAPTER 19
01:53:08.782 : :CHAPTER 20
01:59:05.930 : :CHAPTER 21
02:02:56.703 : :CHAPTER 22
02:15:45.262 : :CHAPTER 23
02:22:51.021 : :CHAPTER 24

Скриншоты

 GOLD TORRENT! DOWNLOAD TRAFFIC DOES NOT CONSIDER! 
Torrent: Registered [ 2017-11-23 22:27 ]   · B8B7C6E7F37DB108BEEE609125409D64CC882D42

Download .torrent

Download

124 KB

Status: checked
Completed: 0 times
Size: 24.66 GB
Поделиться:
terms.php
[Profile] [PM]
Display posts:    
Reply to topic

Current time is: 28-Feb 21:57

All times are UTC + 3



You cannot post new topics in this forum
You cannot reply to topics in this forum
You cannot edit your posts in this forum
You cannot delete your posts in this forum
You cannot vote in polls in this forum
You cannot attach files in this forum
You can download files in this forum