Телохранитель киллера / The Hitman's Bodyguard (Патрик Хьюз / Patrick Hughes) [2017, США, Китай, Болгария, Нидерланды, боевик, комедия, BDRip 1080p] Dub (iTunes) + Sub Eng + Original Eng Страницы: 1

Reply to topic
DL-List and Torrent activity [Update пиров]
Size:  13.98 GB   |    Registered:  3 years 3 months   |    Completed:  0 times
Seeders:  2  [  0 KB/s  ]   Leechers:  8  [  0 KB/s  ]   Show peers in full details
 
   
 
 
Author Message

admin ®

Gender: Male

Longevity: 3 years 4 months

Posts: 10150

Post 20-Nov-2017 19:11

[Quote]

Телохранитель киллера / The Hitman's Bodyguard
Страна: США, Китай, Болгария, Нидерланды
Студия: Campbell Grobman Films, Cristal Pictures, East Light Media, Millennium Films
Жанр: боевик, комедия
Год выпуска: 2017
Продолжительность: 01:58:17
Перевод: Профессиональный (дублированный) | iTunes
Субтитры: английские
Оригинальная аудиодорожка: английский
Режиссер: Патрик Хьюз / Patrick Hughes
В ролях: Райан Рейнольдс (Michael Bryce), Сэмюэл Л. Джексон (Darius Kincaid), Элоди Юнг (Amelia Roussel), Сальма Хайек (Sonia Kincaid), Гари Олдман (Vladislav Dukhovich), Жоаки де Алмейда (Jean Foucher), Юрий Колокольников (Ivan), Тине Жустра (Renata Casoria), Сэм Хэзелдайн (Garrett), Ричард Э. Грант (Seifert), Цуваюки Саотомэ (Kurosawa), Рой Хилл (Helicopter Pilot / Newscaster)
Описание: Он - телохранитель мирового уровня. Его новая работа - охранять киллера, которого все мечтают убить. Он и сам с удовольствием прикончил бы этого гада. Но работа есть работа: смертельные враги в прошлом, они вынуждены объединиться в настоящем, чтобы выжить. Однако их методы настолько различны, а принципы противоположны, что вопрос выживания - под большим вопросом.- by BlurayDude-Тип релиза: BDRip 1080p
Контейнер: MKV
Видео: 1920x804 (2.40:1), 23.976, x264@L4.1 15.0 Mбит/с, 0.405 bit/pixel
Аудио Russian: 48 kHz, AC3, 3/2 (L,C,R,l,r) + LFE ch, ~384 kbps avg | iTunes
Аудио English: 48 kHz, DTS, 3/2 (L,C,R,l,r) + LFE ch, ~1509 kbps avg
Формат субтитров: softsub (SRT)-

MediaInfo

Общее
Уникальный идентификатор : 244660887550669335420421212014082402937 (0xB80FF9139B3A156A88864A493AF22A79)
Полное имя : G:\Movies\T_HITMAN'S_BODYGUARD_BDRip_1080p-BLUEBIRD.mkv
Формат : Matroska
Версия формата : Version 4 / Version 2
Размер файла : 14,0 Гбайт
Продолжительность : 1 ч. 58 м.
Общий поток : 16,9 Мбит/сек
Название фильма : T_HITMAN'S_BODYGUARD_BDRip_1080p-BLUEBIRD
Дата кодирования : UTC 2017-11-10 19:41:34
Программа кодирования : mkvmerge v16.0.0 ('Protest') 64-bit
Библиотека кодирования : libebml v1.3.5 + libmatroska v1.4.8
Видео
Идентификатор : 1
Формат : AVC
Формат/Информация : Advanced Video Codec
Профиль формата : High@L4.1
Настройки формата : CABAC / 5 Ref Frames
Параметр CABAC формата : Да
Параметр RefFrames формата : 5 кадров
Идентификатор кодека : V_MPEG4/ISO/AVC
Продолжительность : 1 ч. 58 м.
Битрейт : 15,0 Мбит/сек
Ширина : 1920 пикселей
Высота : 804 пикселя
Соотношение сторон : 2,40:1
Режим частоты кадров : Постоянный
Частота кадров : 23,976 (24000/1001) кадра/сек
Цветовое пространство : YUV
Субдискретизация насыщенности : 4:2:0
Битовая глубина : 8 бит
Тип развёртки : Прогрессивная
Бит/(Пиксели*Кадры) : 0.405
Размер потока : 12,4 Гбайт (88%)
Заголовок : T_HITMAN'S_BODYGUARD_BDRip_1080p-BLUEBIRD
Библиотека кодирования : x264 core 148 r2665kMod a01e339
Настройки программы : cabac=1 / ref=5 / deblock=1:-3:-3 / analyse=0x3:0x133 / me=umh / subme=11 / psy=1 / fade_compensate=0.00 / psy_rd=0.85:0.00 / mixed_ref=1 / me_range=48 / chroma_me=1 / trellis=2 / 8x8dct=1 / cqm=0 / deadzone=21,11 / fast_pskip=0 / chroma_qp_offset=-2 / threads=24 / lookahead_threads=4 / sliced_threads=0 / nr=0 / decimate=0 / interlaced=0 / bluray_compat=0 / constrained_intra=0 / fgo=0 / bframes=8 / b_pyramid=2 / b_adapt=2 / b_bias=0 / direct=3 / weightb=1 / open_gop=0 / weightp=2 / keyint=240 / keyint_min=24 / scenecut=40 / intra_refresh=0 / rc=2pass / mbtree=0 / bitrate=15000 / ratetol=1.0 / qcomp=0.70 / qpmin=0 / qpmax=69 / qpstep=4 / cplxblur=20.0 / qblur=0.5 / ip_ratio=1.20 / pb_ratio=1.20 / aq=3:0.80
Default : Да
Forced : Нет
Аудио #1
Идентификатор : 2
Формат : AC-3
Формат/Информация : Audio Coding 3
Идентификатор кодека : A_AC3
Продолжительность : 1 ч. 58 м.
Вид битрейта : Постоянный
Битрейт : 384 Кбит/сек
Каналы : 6 каналов
Расположение каналов : Front: L C R, Side: L R, LFE
Частота : 48,0 КГц
Частота кадров : 31,250 кадров/сек (1536 SPF)
Битовая глубина : 16 бит
Метод сжатия : С потерями
Размер потока : 325 Мбайт (2%)
Заголовок : [DUB] DD 5.1 @ 384 kbps (iTunes)
Язык : Russian
ServiceKind/String : Complete Main
Default : Да
Forced : Нет
Аудио #2
Идентификатор : 3
Формат : DTS
Формат/Информация : Digital Theater Systems
Идентификатор кодека : A_DTS
Продолжительность : 1 ч. 58 м.
Вид битрейта : Постоянный
Битрейт : 1509 Кбит/сек
Каналы : 6 каналов
Расположение каналов : Front: L C R, Side: L R, LFE
Частота : 48,0 КГц
Частота кадров : 93,750 кадра/сек (512 SPF)
Битовая глубина : 24 бит
Метод сжатия : С потерями
Размер потока : 1,25 Гбайт (9%)
Заголовок : [ORIGINAL] DTS 5.1 @ 1509 kbps
Язык : English
Default : Нет
Forced : Нет
Текст
Идентификатор : 4
Формат : PGS
Идентификатор кодека : S_HDMV/PGS
Идентификатор кодека/Информация : Picture based subtitle format used on BDs/HD-DVDs
Продолжительность : 1 ч. 57 м.
Битрейт : 52,6 Кбит/сек
ElementCount : 3914
Размер потока : 44,3 Мбайт (0%)
Заголовок : Full-length
Язык : English
Default : Нет
Forced : Нет
Меню
00:00:00.000 : en:00:00:00.000
00:07:22.942 : en:00:07:22.942
00:13:53.875 : en:00:13:53.875
00:20:23.305 : en:00:20:23.305
00:27:20.138 : en:00:27:20.138
00:32:53.513 : en:00:32:53.513
00:38:25.428 : en:00:38:25.428
00:46:52.977 : en:00:46:52.977
00:56:39.354 : en:00:56:39.354
01:00:23.370 : en:01:00:23.370
01:09:11.397 : en:01:09:11.397
01:16:34.381 : en:01:16:34.381
01:21:11.241 : en:01:21:11.241
01:27:45.093 : en:01:27:45.093
01:35:06.743 : en:01:35:06.743
01:40:37.740 : en:01:40:37.740
-

Скриншоты

 GOLD TORRENT! DOWNLOAD TRAFFIC DOES NOT CONSIDER! 
Torrent: Registered [ 2017-11-20 19:11 ]   · D213490E724E5AF174611BABD05C72E7E54BFB7F

Download .torrent

Download

140 KB

Status: checked
Completed: 0 times
Size: 13.98 GB
Поделиться:
terms.php
[Profile] [PM]
Display posts:    
Reply to topic

Current time is: 25-Feb 15:52

All times are UTC + 3



You cannot post new topics in this forum
You cannot reply to topics in this forum
You cannot edit your posts in this forum
You cannot delete your posts in this forum
You cannot vote in polls in this forum
You cannot attach files in this forum
You can download files in this forum