Брюс Ли: Рождение Дракона / Birth of the Dragon (Джордж Нолфи / George Nolfi) [2016, Китай, Канада, США, Боевик, драма, биография, BDRip-AVC] Dub + Sub Eng + Original Eng

Reply to topic
DL-List and Torrent activity [Update пиров]
Size:  2.49 GB   |    Registered:  8 months 18 days   |    Completed:  0 times

Seeder not seen: Never

 
   
 
 
Author Message

admin ®

Gender: Male

Longevity: 3 years 4 months

Posts: 10149

Post 16-Nov-2017 20:01

[Quote]

Брюс Ли: Рождение ДраконаBirth of the Dragon«Поединок, ставший легендой»

Страна: Китай, Канада, США
Жанр: Боевик, драма, биография
Год выпуска: 2016
Продолжительность: 01:35:34
Перевод: Профессиональный (дублированный) iTunes
Субтитры: английские
Оригинальная аудиодорожка: английский
Режиссер: Джордж Нолфи / George Nolfi
В ролях: Филип Нг, Ся Юй, Ван Сиань, Юй Хай, У Юэ, Билли Магнуссен, Стивен Холмс, Райли Вуд, Саймон Инь, Терри Чен
Описание: Вскоре после приезда в США молодой Брюс Ли открывает школу единоборств. Но известный мастер Вон Джак Мань вызывает юного Брюса на бой. Проигравшему придется закрыть свою школу.
Доп. информация:
Релиз группы:
Автор рипа: IVAN@190282
Качество видео: BDRip-AVC |BIRTH_OF_THE_DRAGON_BLUEBIRD |
Формат видео: MKV
Видео: 1152x480 (2:40:1), 23,976 fps, 2830 Кbps, 0.213 bit/pixe
Аудио: 48 kHz, AC3 Dolby Digital, 3/2 (L,C,R,l,r) + LFE ch, ~384.00 kbps avg DUB
Аудио 2: 48 kHz, AC3 Dolby Digital, 3/2 (L,C,R,l,r) + LFE ch, ~448.00 kbps avg ENG
Формат субтитров: softsub (SRT)
Доп. информация о субтитрах: отключаемые srt

MediaInfo

General
Unique ID : 184176654254047947832971301514901176095 (0x8A8F222320769263AEB1EF49B35BBF1F)
Complete name : F:\Мои рипы\Брюс Ли Рождение Дракона\Birth of the Dragon by_IVAN@190282.mkv
Format : Matroska
Format version : Version 4 / Version 2
File size : 2.49 GiB
Duration : 1h 35mn
Overall bit rate : 3 736 Kbps
Movie name : Birth of the Dragon by_IVAN@190282
Encoded date : UTC 2017-11-16 15:23:17
Writing application : mkvmerge v17.0.0 ('Be Ur Friend') 64-bit
Writing library : libebml v1.3.5 + libmatroska v1.4.8
DURATION : 01:31:36.950000000
NUMBER_OF_FRAMES : 1260
NUMBER_OF_BYTES : 35125
_STATISTICS_WRITING_APP : mkvmerge v17.0.0 ('Be Ur Friend') 64-bit
_STATISTICS_WRITING_DATE_UTC : 2017-11-16 15:23:17
_STATISTICS_TAGS : BPS DURATION NUMBER_OF_FRAMES NUMBER_OF_BYTES
Attachment : Yes
Video
ID : 1
Format : AVC
Format/Info : Advanced Video Codec
Format profile : High@L4.1
Format settings, CABAC : Yes
Format settings, ReFrames : 11 frames
Codec ID : V_MPEG4/ISO/AVC
Duration : 1h 35mn
Bit rate : 2 830 Kbps
Width : 1 152 pixels
Height : 480 pixels
Display aspect ratio : 2.40:1
Frame rate mode : Constant
Frame rate : 23.976 fps
Color space : YUV
Chroma subsampling : 4:2:0
Bit depth : 8 bits
Scan type : Progressive
Bits/(Pixel*Frame) : 0.213
Stream size : 1.89 GiB (76%)
Title : Birth of the Dragon by_IVAN@190282
Writing library : x264 core 152 r2851kMod ba24899
Encoding settings : cabac=1 / ref=11 / deblock=1:-3:-3 / analyse=0x3:0x113 / me=umh / subme=11 / psy=1 / fade_compensate=0.00 / psy_rd=1.00:0.05 / mixed_ref=1 / me_range=48 / chroma_me=1 / trellis=2 / 8x8dct=1 / cqm=0 / deadzone=21,11 / fast_pskip=0 / chroma_qp_offset=-3 / threads=6 / lookahead_threads=6 / sliced_threads=0 / nr=0 / decimate=1 / interlaced=0 / bluray_compat=0 / constrained_intra=0 / bframes=16 / b_pyramid=2 / b_adapt=2 / b_bias=0 / direct=3 / weightb=1 / open_gop=0 / weightp=2 / keyint=240 / keyint_min=23 / scenecut=40 / intra_refresh=0 / rc_lookahead=60 / rc=crf / mbtree=1 / crf=17.1000 / qcomp=0.60 / qpmin=0 / qpmax=69 / qpstep=4 / vbv_maxrate=50000 / vbv_bufsize=62500 / crf_max=0.0 / nal_hrd=none / filler=0 / ip_ratio=1.40 / aq=3:0.80
Language : English
Default : Yes
Forced : No
Color primaries : BT.709
Transfer characteristics : BT.709
Matrix coefficients : BT.709
DURATION : 01:35:34.980000000
NUMBER_OF_FRAMES : 137502
NUMBER_OF_BYTES : 2080015397
_STATISTICS_WRITING_APP : mkvmerge v17.0.0 ('Be Ur Friend') 64-bit
_STATISTICS_WRITING_DATE_UTC : 2017-11-16 15:23:17
_STATISTICS_TAGS : BPS DURATION NUMBER_OF_FRAMES NUMBER_OF_BYTES
Audio #1
ID : 2
Format : AC-3
Format/Info : Audio Coding 3
Mode extension : CM (complete main)
Format settings, Endianness : Big
Codec ID : A_AC3
Duration : 1h 35mn
Bit rate mode : Constant
Bit rate : 384 Kbps
Channel(s) : 6 channels
Channel positions : Front: L C R, Side: L R, LFE
Sampling rate : 48.0 KHz
Bit depth : 16 bits
Compression mode : Lossy
Stream size : 263 MiB (10%)
Title : Dub
Language : Russian
Default : Yes
Forced : No
Audio #2
ID : 3
Format : AC-3
Format/Info : Audio Coding 3
Mode extension : CM (complete main)
Format settings, Endianness : Big
Codec ID : A_AC3
Duration : 1h 35mn
Bit rate mode : Constant
Bit rate : 448 Kbps
Channel(s) : 6 channels
Channel positions : Front: L C R, Side: L R, LFE
Sampling rate : 48.0 KHz
Bit depth : 16 bits
Compression mode : Lossy
Stream size : 306 MiB (12%)
Title : Eng
Language : English
Default : No
Forced : No
Text
ID : 4
Format : UTF-8
Codec ID : S_TEXT/UTF8
Codec ID/Info : UTF-8 Plain Text
Title : Eng
Language : English
Default : No
Forced : No
Menu
00:00:00.000 : en:00:00:00.000
00:03:53.191 : en:00:03:53.191
00:06:30.555 : en:00:06:30.555
00:11:43.410 : en:00:11:43.410
00:14:59.440 : en:00:14:59.440
00:19:37.843 : en:00:19:37.843
00:23:58.394 : en:00:23:58.394
00:30:41.297 : en:00:30:41.297
00:38:46.323 : en:00:38:46.323
00:42:36.679 : en:00:42:36.679
00:45:06.661 : en:00:45:06.661
00:49:24.167 : en:00:49:24.167
00:53:51.603 : en:00:53:51.603
01:00:02.222 : en:01:00:02.222
01:04:24.985 : en:01:04:24.985
01:08:57.506 : en:01:08:57.506
01:15:40.327 : en:01:15:40.327
01:19:23.759 : en:01:19:23.759
01:23:18.368 : en:01:23:18.368
01:28:10.493 : en:01:28:10.493[/pre]

x264 log

x264 [info]: frame I:1072 Avg QP:14.88 size:132969 PSNR Mean Y:49.47 U:51.47 V:51.17 Avg:50.00 Global:49.64
x264 [info]: frame P:27564 Avg QP:16.83 size: 35814 PSNR Mean Y:46.74 U:49.29 V:47.92 Avg:47.25 Global:46.60
x264 [info]: frame B:108866 Avg QP:19.44 size: 8729 PSNR Mean Y:45.85 U:48.71 V:46.41 Avg:46.28 Global:45.58
x264 [info]: consecutive B-frames: 2.2% 2.0% 5.0% 11.3% 19.4% 44.8% 7.2% 1.5% 1.8% 0.8% 0.7% 0.3% 0.9% 1.5% 0.2% 0.0% 0.3%
x264 [total]: encoded 137502 frames, 1.90 fps, 2901.51 kb/s, duration 20:05:05.15

Скриншот c названием фильма

Скриншоты

Убедительная просьба пожалуйста кто скачал не бросайте раздачу!!!
 GOLD TORRENT! DOWNLOAD TRAFFIC DOES NOT CONSIDER! 
Torrent: Registered [ 2020-06-06 08:12 ]   · 0C0DA68C3EEE29F8CC4EC48F5E7C73BC77E3AA47

Download .torrent

Download

13 KB

Status: checked
Completed: 0 times
Size: 2.49 GB
Поделиться:
terms.php


Last edited by admin on 2020-06-06 08:12; edited 2 times in total
[Profile] [PM]

A.D

Gender: Male

Longevity: 3 years 4 months

Posts: 3

Post 07-Jan-2018 23:20 (after 1 month 21 day)

[Quote]

Спасибо!Классный фильм,в стиле боевиков 90х о восточных единоборствах.
[Profile] [PM]
Display posts:    
Reply to topic

Current time is: 25-Feb 07:40

All times are UTC + 3



You cannot post new topics in this forum
You cannot reply to topics in this forum
You cannot edit your posts in this forum
You cannot delete your posts in this forum
You cannot vote in polls in this forum
You cannot attach files in this forum
You can download files in this forum