Влюбленные одиночки / Секс-кукла / Sex Doll (Сильви Веред / Sylvie Verheyde) [2016, Великобритания, Франция, триллер, BDRip] MVO (iTunes) + Original Fre

Reply to topic
DL-List and Torrent activity [Update пиров]
Size:  1.42 GB   |    Registered:  3 years 5 months   |    Completed:  0 times

Seeder not seen: Never

 
   
 
 
Author Message

admin ®

Gender: Male

Longevity: 3 years 7 months

Posts: 10804

Post 15-Nov-2017 18:08

[Quote]

Влюбленные одиночки / Секс-кукла / Sex Doll
Страна: Великобритания, Франция
Жанр: Триллер
Год выпуска: 2016
Продолжительность: 01:43:27
Перевод: Профессиональный (многоголосый закадровый) iTunes
Субтитры: нет
Оригинальная аудиодорожка: французский
Режиссер: Сильви Веред / Sylvie Verheyde
В ролях: Афсиа Эрзи, Эш Стаймест, Кароль Роше, Поль Ами, Джереми Беннетт, Саймон Киллик, Уэйн Сванн
Описание: Место действия современной сказки о любви — темная сторона Лондона, своеобразный мир высококлассных девушек легкого поведения. Вирджиния — молодая, невероятно красивая и независимая француженка. Трудится она много и самоотверженно: проводит дни и ночи с состоятельными мужчинами за большие деньги.
Вирджиния сумела заслужить уважение в своей совершенно аморальной среде. Карьера шла в гору, пока она не встретила его. Руперт — юный и дерзкий. Он по-настоящему влюбляется, закрыв глаза на сомнительную репутацию новой подруги. Его цель — спасти Вирджинию от унижения, опасности и презрения, ставших для нее нормой.
Семпл
Исходник - SEX_DOLL_REMUX_HDCLUB (HDCLUB)
Качество видео: BDRip
Формат видео: AVI
Видео: 720x304, 23.976 fps, XviD, 1385 Kbps, 0.264 bit/pixel
Аудио:
№1 192 Kbps, 48 KHz, 2 ch, AC3 MVO (iTunes)
№2 384 Kbps, 48 KHz, 6 ch, AC3 Французский

МедиаИнфо

General
Complete name : E:\Sex.Doll.2016.avi
Format : AVI
Format/Info : Audio Video Interleave
File size : 1.42 GiB
Duration : 1h 42mn
Overall bit rate : 1 975 Kbps
Writing application : VirtualDubMod 1.5.10.3 | www.virtualdub-fr.org || (build 2550/release)
Writing library : VirtualDubMod build 2550/release
Video
ID : 0
Format : MPEG-4 Visual
Format profile : Advanced Simple@L5
Format settings, BVOP : Yes
Format settings, QPel : No
Format settings, GMC : No warppoints
Format settings, Matrix : Default (MPEG)
Codec ID : XVID
Codec ID/Hint : XviD
Duration : 1h 42mn
Bit rate : 1 385 Kbps
Width : 720 pixels
Height : 304 pixels
Display aspect ratio : 2.35:1
Frame rate : 23.976 fps
Resolution : 8 bits
Colorimetry : 4:2:0
Scan type : Progressive
Bits/(Pixel*Frame) : 0.264
Stream size : 1 019 MiB (70%)
Writing library : XviD 73
Audio #1
ID : 1
Format : AC-3
Format/Info : Audio Coding 3
Format_Settings_ModeExtension : CM (complete main)
Codec ID : 2000
Duration : 1h 42mn
Bit rate mode : Constant
Bit rate : 192 Kbps
Channel(s) : 2 channels
Channel positions : Front: L R
Sampling rate : 48.0 KHz
Stream size : 141 MiB (10%)
Alignment : Split accross interleaves
Interleave, duration : 42 ms (1.00 video frame)
Interleave, preload duration : 500 ms
Audio #2
ID : 2
Format : AC-3
Format/Info : Audio Coding 3
Format_Settings_ModeExtension : CM (complete main)
Codec ID : 2000
Duration : 1h 42mn
Bit rate mode : Constant
Bit rate : 384 Kbps
Channel(s) : 6 channels
Channel positions : Front: L C R, Side: L R, LFE
Sampling rate : 48.0 KHz
Stream size : 282 MiB (19%)
Alignment : Split accross interleaves
Interleave, duration : 42 ms (1.00 video frame)
Interleave, preload duration : 500 ms

Скриншоты

 GOLD TORRENT! DOWNLOAD TRAFFIC DOES NOT CONSIDER! 
Torrent: Registered [ 2017-11-15 18:08 ]   · D6D3D1A4DE520473184E5C00E20DF143C4554B65

Download .torrent

Download

15 KB

Status: checked
Completed: 0 times
Size: 1.42 GB
Поделиться:
terms.php
[Profile] [PM]
Display posts:    
Reply to topic

Current time is: 06-May 03:54

All times are UTC + 3



You cannot post new topics in this forum
You cannot reply to topics in this forum
You cannot edit your posts in this forum
You cannot delete your posts in this forum
You cannot vote in polls in this forum
You cannot attach files in this forum
You can download files in this forum