В этом мире я больше не чувствую себя как дома / I Don't Feel at Home in This World Anymore (Мэйкон Блэр / Macon Blair) [2017, США, Триллер, драма, криминал, WEBRip] VO (BadBajo) + Original + Sub Rus

Reply to topic
DL-List and Torrent activity [Update пиров]
Size:  1.76 GB   |    Registered:  3 years 3 months   |    Completed:  0 times
Seeders:  2  [  0 KB/s  ]   Show peers in full details
 
   
 
 
Author Message

admin ®

Gender: Male

Longevity: 3 years 5 months

Posts: 10162

Post 15-Nov-2017 01:16

[Quote]

В этом мире я больше не чувствую себя как дома / I Don't Feel at Home in This World Anymore

Страна: США
Жанр: Триллер, драма, криминал
Год выпуска: 2017
Продолжительность: 01:36:35
Перевод: Любительский (одноголосый закадровый) - :!: BadBajo :!:
Субтитры: Полные русские - отдельно
Оригинальная аудиодорожка: :arrow: Английский :arrow2:
Режиссер: Мэйкон Блэр / Macon Blair
В ролях: Мелани Лински, Элайджа Вуд, Дэвид Йоу, Джейн Леви, Девон Грайе, Кристин Вудс, Роберт Лонгстрит, Джеб Беррье, Мэйкон Блэр
Описание: Этот мир — сущий бардак. Люди ведут себя как хотят — мусорят, сквернословят, автомобилисты не уступают дорогу пешеходам. В дом к чувствительной и слегка депрессивной Рут залезли хулиганы. И украли бабушкины ложки. Полиция не воспринимает жалобу женщины всерьёз, тогда Рут объединяется с немного сумасшедшим соседом, чтобы поставить хулиганов на место.
Сэмпл: http://multi-up.com/1145690
Качество видео: WEBRip
I.Dont.Feel.at.Home.in.This.World.Anymore.2017.720p.NF.WEBRip.DD5.1.x264-SB
Формат видео: AVI
Видео: 720x304 (2.37:1), 23.976 fps, XviD build 65 ~1706 kbps avg, 0.33 bit/pixel
Аудио RUS: 48 kHz, AC3 Dolby Digital, 3/2 (L,C,R,l,r) + LFE ch, ~448 kbps
Аудио ENG: 48 kHz, AC3 Dolby Digital, 3/2 (L,C,R,l,r) + LFE ch, ~448 kbps - отдельно

Пример субтитров

1
00:01:30,638 --> 00:01:36,138
"В этом мире я больше не чувствую себя как дома."
2
00:01:43,639 --> 00:01:46,432
<i>Незарегистрированные винтовки AR-15
были использованы преступниками.</i>
3
00:01:46,517 --> 00:01:48,601
<i>Губернатор уже назвал этот инцидент
массовым расстрелом</i>
4
00:01:48,686 --> 00:01:51,687
<i>ужасающей,
но все таки неизбежной трагедией."</i>
5
00:01:51,772 --> 00:01:54,734
<i>Далее у наc "Минутка выходного кино"
о которой расскажет Сиджей Дунс.</i>
6
00:01:56,193 --> 00:02:00,321
Только взгляни на этих вонючих обезьян.
7
00:02:00,406 --> 00:02:01,948
Лучше я выключу телевизор
8
00:02:02,033 --> 00:02:05,368
Они отнимают у нас нашу страну
9
00:02:05,453 --> 00:02:08,873
ебанные ублюдки.
10
00:02:09,206 --> 00:02:14,126
И лучше бы им держать
свои огромные обезьяньи члены
11
00:02:14,211 --> 00:02:17,465
подальше от моей прекрасной киски.
12
00:02:30,603 --> 00:02:31,603
Что...?
13
00:02:32,104 --> 00:02:34,063
Она что-нибудь сказала перед смертью?
14
00:03:14,021 --> 00:03:16,857
<i>Вы читаете сагу о других мирах?</i>
15
00:03:18,567 --> 00:03:19,735
Да.
16
00:03:20,444 --> 00:03:22,194
<i>Да, я читаю короля скрытой темноты.</i>
17
00:03:22,279 --> 00:03:23,696
- Второй том. Да.
- Да.
18
00:03:23,781 --> 00:03:25,324
Я читал его недавно.
19
00:03:25,991 --> 00:03:27,199
- О боже
- Да.
20
00:03:27,284 --> 00:03:28,951
Я... остановилась...

MediaInfo

Формат : AVI
Формат/Информация : Audio Video Interleave
Размер файла : 1,46 Гбайт
Продолжительность : 1 ч. 36 м.
Общий поток : 2164 Кбит/сек
Программа кодирования : VirtualDubMod 1.5.10.3 | www.virtualdub-fr.org || (build 2550/release)
Библиотека кодирования : VirtualDubMod build 2550/release
Видео
Идентификатор : 0
Формат : MPEG-4 Visual
Профиль формата : Advanced Simple@L5
Параметр BVOP формата : 1
Параметр QPel формата : Нет
Параметр GMC формата : Без точки перехода
Параметр матрицы формата : Выборочная
Идентификатор кодека : XVID
Идентификатор кодека/Подсказка : XviD
Продолжительность : 1 ч. 36 м.
Битрейт : 1706 Кбит/сек
Ширина : 720 пикселей
Высота : 304 пикселя
Соотношение сторон : 2,35:1
Частота кадров : 23,976 (24000/1001) кадра/сек
Цветовое пространство : YUV
Субдискретизация насыщенности : 4:2:0
Битовая глубина : 8 бит
Тип развёртки : Прогрессивная
Метод сжатия : С потерями
Бит/(Пиксели*Кадры) : 0.325
Размер потока : 1,15 Гбайт (79%)
Библиотека кодирования : XviD 65
Аудио
Идентификатор : 1
Формат : AC-3
Формат/Информация : Audio Coding 3
Расширение режима : CM (complete main)
Параметр Endianness формата : Big
Идентификатор кодека : 2000
Продолжительность : 1 ч. 36 м.
Вид битрейта : Постоянный
Битрейт : 448 Кбит/сек
Каналы : 6 каналов
Расположение каналов : Front: L C R, Side: L R, LFE
Частота : 48,0 КГц
Частота кадров : 31,250 кадров/сек (1536 spf)
Битовая глубина : 16 бит
Метод сжатия : С потерями
Размер потока : 309 Мбайт (21%)
Выравнивание : Разделение по промежуткам
Продолжительность промежутка : 42 мс. (1,00 видеокадр)
Время предзагрузки промежутка : 500 мс.

Скриншоты

 GOLD TORRENT! DOWNLOAD TRAFFIC DOES NOT CONSIDER! 
Torrent: Registered [ 2017-11-15 01:16 ]   · D94160712A424B2C373C950F0963EB26080B1A45

Download .torrent

Download

18 KB

Status: checked
Completed: 0 times
Size: 1.76 GB
Поделиться:
terms.php
[Profile] [PM]
Display posts:    
Reply to topic

Current time is: 28-Feb 12:01

All times are UTC + 3



You cannot post new topics in this forum
You cannot reply to topics in this forum
You cannot edit your posts in this forum
You cannot delete your posts in this forum
You cannot vote in polls in this forum
You cannot attach files in this forum
You can download files in this forum