Тор / Thor (Кеннет Брэна / Kenneth Branagh, Джосс Уидон / Joss Whedon) [2011, боевик, приключения, фэнтези, BDRip 720p] DUB + Original + Sub (Rus, Eng)

Reply to topic
DL-List and Torrent activity [Update пиров]
Size:  6.56 GB   |    Registered:  3 years 3 months   |    Completed:  0 times
Seeders:  2  [  0 KB/s  ]   Show peers in full details
 
   
 
 
Author Message

admin ®

Gender: Male

Longevity: 3 years 5 months

Posts: 10170

Post 15-Nov-2017 00:55

[Quote]

Тор / Thor- Страна: США
Студия: Paramount Pictures, Marvel Entertainment
Жанр: боевик, приключения, фэнтези
Год выпуска: 2011
Продолжительность: 01:54:50-Перевод: Профессиональный (дублированный)
Оригинальная аудиодорожка: Английская-Субтитры: русские, английские, английские SDH
Формат субтитров: softsub SRT-Режиссер: Кеннет Брэна / Kenneth Branagh, Джосс Уидон / Joss Whedon-В ролях: Крис Хемсворт, Натали Портман, Энтони Хопкинс, Том Хиддлстон, Стеллан Скарсгард, Кэт Деннингс, Кларк Грегг, Идрис Эльба, Колм Фиор, Рэй Стивенсон-Описание: Эпическое приключение происходит как на нашей планете Земля, так и в вымышленном королевстве богов Асгарде. В центре истории — Могучий Тор, сильный, но высокомерный воин, чьи безрассудные поступки возрождают древнюю войну в Асгарде. Тора отправляют в ссылку на Землю, лишают сил и заставляют жить среди обычных людей в качестве наказания…-http://www.imdb.com/title/tt0800369
http://www.kinopoisk.ru/level/1/film/258941-Релиз от - -Тип релиза: BDRip (HiDt)
Контейнер: MKV-Видео: 1280x544 (2.35:1), 23.976 fps, x264@L4.1, 2pass, ~6027 kbps
Аудио #1: Russian: 48 kHz, AC3 Dolby Digital, 3/2 (L,C,R,l,r) + LFE ch, ~640 kbps |Дубляж, Blu-ray CEE|
Аудио #2: English: 48 kHz/24-bit, DTS-ES, 3/2 (L,C,R,l,r) + LFE ch, ~1536 kbps-

Скриншоты


MediaInfo

General
Complete name : Thor.2011.BDRip.720p.H264.AC3.DTS.-HQCLUB.mkv
Format : Matroska
File size : 6.56 GiB
Duration : 1h 54mn
Overall bit rate : 8 178 Kbps
Movie name : 720p BDRip by HiDt
Encoded date : UTC 2011-09-09 03:30:46
Writing application : mkvmerge v4.9.1 ('Ich will') built on Jul 11 2011 23:53:15
Writing library : libebml v1.2.1 + libmatroska v1.1.1
Video
ID : 1
Format : AVC
Format/Info : Advanced Video Codec
Format profile : High@L4.1
Format settings, CABAC : Yes
Format settings, ReFrames : 12 frames
Codec ID : V_MPEG4/ISO/AVC
Duration : 1h 54mn
Bit rate : 6 027 Kbps
Width : 1 280 pixels
Height : 544 pixels
Display aspect ratio : 2.35:1
Frame rate : 23.976 fps
Color space : YUV
Chroma subsampling : 4:2:0
Bit depth : 8 bits
Scan type : Progressive
Bits/(Pixel*Frame) : 0.361
Stream size : 4.71 GiB (72%)
Title : Thor (2011) 720p BDRip
Writing library : x264 core 116 r2074 2641b9e
Encoding settings : cabac=1 / ref=12 / deblock=1:-2:-2 / analyse=0x3:0x113 / me=tesa / subme=11 / psy=1 / psy_rd=0.95:0.10 / mixed_ref=1 / me_range=24 / chroma_me=1 / trellis=2 / 8x8dct=1 / cqm=0 / deadzone=21,11 / fast_pskip=0 / chroma_qp_offset=-3 / threads=12 / sliced_threads=0 / nr=0 / decimate=1 / interlaced=0 / bluray_compat=0 / constrained_intra=0 / bframes=6 / b_pyramid=2 / b_adapt=2 / b_bias=0 / direct=3 / weightb=1 / open_gop=0 / weightp=2 / keyint=250 / keyint_min=23 / scenecut=40 / intra_refresh=0 / rc_lookahead=40 / rc=2pass / mbtree=1 / bitrate=6027 / ratetol=1.0 / qcomp=0.55 / qpmin=0 / qpmax=69 / qpstep=4 / cplxblur=20.0 / qblur=0.5 / vbv_maxrate=40000 / vbv_bufsize=40000 / nal_hrd=none / ip_ratio=1.40 / aq=1:1.00
Language : English
Audio #1
ID : 2
Format : AC-3
Format/Info : Audio Coding 3
Mode extension : CM (complete main)
Codec ID : A_AC3
Duration : 1h 54mn
Bit rate mode : Constant
Bit rate : 640 Kbps
Channel(s) : 6 channels
Channel positions : Front: L C R, Side: L R, LFE
Sampling rate : 48.0 KHz
Bit depth : 16 bits
Compression mode : Lossy
Stream size : 526 MiB (8%)
Title : AC3 5.1 @ 640 kbps - Дубляж, Blu-ray CEE
Language : Russian
Audio #2
ID : 3
Format : DTS
Format/Info : Digital Theater Systems
Format profile : ES
Codec ID : A_DTS
Duration : 1h 54mn
Bit rate mode : Constant
Bit rate : 1 510 Kbps
Channel(s) : 6 channels
Channel positions : Front: L C R, Side: L R, LFE
Sampling rate : 48.0 KHz
Bit depth : 24 bits
Compression mode : Lossy
Stream size : 1.21 GiB (18%)
Title : DTS-ES 5.1 @ 1536 kbps
Language : English
Text #1
ID : 4
Format : UTF-8
Codec ID : S_TEXT/UTF8
Codec ID/Info : UTF-8 Plain Text
Language : Russian
Text #2
ID : 5
Format : UTF-8
Codec ID : S_TEXT/UTF8
Codec ID/Info : UTF-8 Plain Text
Language : English
Text #3
ID : 6
Format : UTF-8
Codec ID : S_TEXT/UTF8
Codec ID/Info : UTF-8 Plain Text
Title : SDH
Language : English
Menu
00:00:00.000 : en:Chapter 01
00:10:38.137 : en:Chapter 02
00:17:33.135 : en:Chapter 03
00:26:02.602 : en:Chapter 04
00:32:28.196 : en:Chapter 05
00:37:28.412 : en:Chapter 06
00:42:14.198 : en:Chapter 07
00:52:10.377 : en:Chapter 08
01:01:24.972 : en:Chapter 09
01:08:45.538 : en:Chapter 10
01:15:39.159 : en:Chapter 11
01:21:19.249 : en:Chapter 12
01:30:35.346 : en:Chapter 13
01:40:58.177 : en:Chapter 14
01:45:13.724 : en:Chapter 15
01:53:06.196 : en:Chapter 16
 GOLD TORRENT! DOWNLOAD TRAFFIC DOES NOT CONSIDER! 
Torrent: Registered [ 2017-11-15 00:55 ]   · BA0776D425EA1C10FEB481BEDD4AD362DBEB7A74

Download .torrent

Download

33 KB

Status: checked
Completed: 0 times
Size: 6.56 GB
Поделиться:
terms.php
[Profile] [PM]
Display posts:    
Reply to topic

Current time is: 02-Mar 10:40

All times are UTC + 3



You cannot post new topics in this forum
You cannot reply to topics in this forum
You cannot edit your posts in this forum
You cannot delete your posts in this forum
You cannot vote in polls in this forum
You cannot attach files in this forum
You can download files in this forum