Няня / The Babysitter (2017) WEBRip 720p | L

Reply to topic
DL-List and Torrent activity [Update пиров]
Size:  2.57 GB   |    Registered:  3 years 5 months   |    Completed:  0 times
Seeders:  130  [  0 KB/s  ]   Leechers:  13  [  0 KB/s  ]   Show peers in full details
 
   
 
 
Author Message

admin ®

Gender: Male

Longevity: 3 years 7 months

Posts: 10831

Post 14-Nov-2017 18:14

[Quote]

Информация о фильме
Наименование: Няня
Оригинальное наименование: The Babysitter
Произведено: США
Категория: ужасы
Режиссер постановщик: МакДжи
В главных ролях: Белла Торн, Самара Уивинг, Лесли Бибб, Робби Амелл, Хана Мэй Ли, Эмили Элин Линд, Эндрю Бэчелор, Джуда Льюис, Даг Хейли, Крис Уайлд
О фильме:
Коул по уши влюблён в свою няню Би — красивую, весёлую, умную и уверенную в себе девушку. Однажды ночью мальчишка решает не ложиться спать и проследить за ней. Но события принимают неожиданный поворот: няня оказывается хладнокровной убийцей, служащей самому дьяволу.

Файл
Качество: WEBRip 720p
Видео данные: MKV, 1280x536 (2.40:1), 23.976 fps, 4000 Кбит/с
Аудио данные: Русский (AC3, 2 ch, 384 Кбит/с)
Перевод: Любительский многоголосый двухголосый (GreenРай Studio)
Продолжительность: 01:25:58
Над релизом работали:
Озвучили — Дмитрий Карабасов, Татьяна Трусевич и Нана Саркисян

Mediainfo

General
Unique ID : 195373749385872410221429104998500149552 (0x92FB9D8CC05BA7A09F5D4EDB9C862930)
Complete name : D:Рабочий столThe.Babysitter.2017.P.WEB-DL.720p.mkv
Format : Matroska
Format version : Version 4 / Version 2
File size : 2.57 GiB
Duration : 1 h 25 min
Overall bit rate mode : Constant
Overall bit rate : 4 284 kb/s
Encoded date : UTC 2017-11-09 09:02:10
Writing application : mkvmerge v8.3.0 ('Over the Horizon') 64bit
Writing library : libebml v1.3.1 + libmatroska v1.4.2
Video
ID : 1
Format : AVC
Format/Info : Advanced Video Codec
Format profile : Main@L3.1
Format settings, CABAC : Yes
Format settings, ReFrames : 3 frames
Codec ID : V_MPEG4/ISO/AVC
Duration : 1 h 25 min
Bit rate mode : Constant
Bit rate : 4 000 kb/s
Width : 1 280 pixels
Height : 536 pixels
Display aspect ratio : 2.40:1
Frame rate mode : Constant
Frame rate : 23.976 (23976/1000) FPS
Standard : NTSC
Color space : YUV
Chroma subsampling : 4:2:0
Bit depth : 8 bits
Scan type : Progressive
Bits/(Pixel*Frame) : 0.243
Stream size : 2.34 GiB (91%)
Language : English
Default : Yes
Forced : No
Color range : Limited
Audio
ID : 2
Format : AC-3
Format/Info : Audio Coding 3
Mode extension : CM (complete main)
Format settings, Endianness : Big
Codec ID : A_AC3
Duration : 1 h 25 min
Bit rate mode : Constant
Bit rate : 384 kb/s
Channel(s) : 2 channels
Channel positions : Front: L R
Sampling rate : 48.0 kHz
Frame rate : 31.250 FPS (1536 spf)
Compression mode : Lossy
Stream size : 236 MiB (9%)
Default : Yes
Forced : No
ВНИМАНИЕ! Присутствует реклама!

Скриншоты

 GOLD TORRENT! DOWNLOAD TRAFFIC DOES NOT CONSIDER! 
Torrent: Registered [ 2017-11-14 18:14 ]   · E31C7533EE028C28997F83F251DDC82CF4F69034

Download .torrent

Download

14 KB

Status: T temporary
Completed: 0 times
Size: 2.57 GB
Поделиться:
terms.php
[Profile] [PM]
Display posts:    
Reply to topic

Current time is: 09-May 01:41

All times are UTC + 3



You cannot post new topics in this forum
You cannot reply to topics in this forum
You cannot edit your posts in this forum
You cannot delete your posts in this forum
You cannot vote in polls in this forum
You cannot attach files in this forum
You can download files in this forum