Ветреная река / Wind River (2017) BDRip 1080p | iTunes

Reply to topic
DL-List and Torrent activity [Update пиров]
Size:  7.55 GB   |    Registered:  3 years 7 months   |    Completed:  0 times
Seeders:  160  [  0 KB/s  ]   Leechers:  22  [  0 KB/s  ]   Show peers in full details
 
   
 
 
Author Message

admin ®

Gender: Male

Longevity: 3 years 8 months

Posts: 12031

Post 09-Nov-2017 20:47

[Quote]

Информация о фильме
Название: Ветреная река
Оригинальное название: Wind River
Год выпуска: 2017
Жанр: Боевик, триллер, криминал, детектив
Режиссер: Тейлор Шеридан
В ролях: Джереми Реннер, Элизабет Олсен, Джон Бернтал, Келси Чоу, Джулия Джонс, Тео Брионес, Апесанахкват, Грэм Грин, Танту Кардинал, Эрик Ланж, Джил Бирмингем
О фильме:
В пустыне на территории индейской резервации «Ветреная река» егерь Кори Ламберт находит изувеченное тело молодой девушки. Опытный охотник с трагическим прошлым, он берется помочь в расследовании этого дела агенту ФБР Джейн Бэннер, которая оказывается в мире, полном загадок и насилия. Но смогут ли они противостоять зловещим силам этих мест, где сама природа пропитана горечью и жаждой мщения?..

Страна: Великобритания, Канада, США
Студия: Acacia Filmed Entertainment, Film 44, Ingenious Media, Savvy Media Holdings, Star Thrower Entertainment
Продолжительность: 01:46:47
Перевод: Дублированный | iTunes
Файл
Формат: MKV, BDRip 1080p
Видео: MPEG-4 AVC, 9111 Кбит/с, 1920x804
Aудио#1: [RUS] AC3 | 48 KHz | 5.1 (Front: L С R Side: L R) + LFE | ~384 kbps
Aудио#2: [ENG] AC3 | 48 KHz | 5.1 (Front: L С R Side: L R) + LFE | ~640 kbps
Субтитры: русские (полные), английские (полные)

Скриншоты


МИ

Общее
Уникальный идентификатор : 204250206016866830943459410771497436840 (0x99A928A68F8A010A96C8E9A3A733C6A8)
Полное имя : X:�0000Wind.River.(2017).BDRip.1080p.(qqss44).mkv
Формат : Matroska
Версия формата : Version 2
Размер файла : 7,55 Гбайт
Продолжительность : 1 ч. 46 м.
Общий поток : 10,1 Мбит/сек
Название фильма : Wind.River.(2017).BDRip.1080p.(qqss44)
Дата кодирования : UTC 2017-11-09 09:20:23
Программа кодирования : mkvmerge v5.8.0 ('No Sleep / Pillow') built on Sep 2 2012 15:37:04
Библиотека кодирования : libebml v1.2.3 + libmatroska v1.3.0
Видео
Идентификатор : 1
Формат : AVC
Формат/Информация : Advanced Video Codec
Профиль формата : High@L4.1
Параметр CABAC формата : Да
Параметр ReFrames формата : 5 кадров
Идентификатор кодека : V_MPEG4/ISO/AVC
Продолжительность : 1 ч. 46 м.
Битрейт : 9111 Кбит/сек
Ширина : 1920 пикселей
Высота : 804 пикселя
Соотношение сторон : 2,40:1
Режим частоты кадров : Постоянный
Частота кадров : 23,976 (24000/1001) кадра/сек
Цветовое пространство : YUV
Субдискретизация насыщенности : 4:2:0
Битовая глубина : 8 бит
Тип развёртки : Прогрессивная
Бит/(Пиксели*Кадры) : 0.246
Размер потока : 6,63 Гбайт (88%)
Библиотека кодирования : x264 core 152 r2851kMod ba24899
Настройки программы : cabac=1 / ref=5 / deblock=1:-1:-1 / analyse=0x3:0x113 / me=umh / subme=11 / psy=1 / fade_compensate=0.00 / psy_rd=1.00:0.00 / mixed_ref=1 / me_range=32 / chroma_me=1 / trellis=2 / 8x8dct=1 / cqm=0 / deadzone=21,11 / fast_pskip=0 / chroma_qp_offset=-2 / threads=12 / lookahead_threads=2 / sliced_threads=0 / nr=0 / decimate=0 / interlaced=0 / bluray_compat=0 / constrained_intra=0 / bframes=9 / b_pyramid=2 / b_adapt=2 / b_bias=0 / direct=3 / weightb=1 / open_gop=0 / weightp=2 / keyint=240 / keyint_min=23 / scenecut=40 / intra_refresh=0 / rc_lookahead=40 / rc=2pass / mbtree=0 / bitrate=9111 / ratetol=1.0 / qcomp=0.65 / qpmin=0 / qpmax=69 / qpstep=4 / cplxblur=20.0 / qblur=0.5 / vbv_maxrate=50000 / vbv_bufsize=62500 / nal_hrd=none / filler=0 / ip_ratio=1.40 / pb_ratio=1.30 / aq=3:0.80
Язык : English
Default : Да
Forced : Нет
Аудио #1
Идентификатор : 2
Формат : AC-3
Формат/Информация : Audio Coding 3
Расширение режима : CM (complete main)
Параметр Endianness формата : Big
Идентификатор кодека : A_AC3
Продолжительность : 1 ч. 46 м.
Вид битрейта : Постоянный
Битрейт : 384 Кбит/сек
Каналы : 6 каналов
Расположение каналов : Front: L C R, Side: L R, LFE
Частота : 48,0 КГц
Частота кадров : 31,250 кадров/сек (1536 spf)
Метод сжатия : С потерями
Размер потока : 293 Мбайт (4%)
Язык : Russian
Default : Да
Forced : Нет
Аудио #2
Идентификатор : 3
Формат : AC-3
Формат/Информация : Audio Coding 3
Расширение режима : CM (complete main)
Параметр Endianness формата : Big
Идентификатор кодека : A_AC3
Продолжительность : 1 ч. 46 м.
Вид битрейта : Постоянный
Битрейт : 640 Кбит/сек
Каналы : 6 каналов
Расположение каналов : Front: L C R, Side: L R, LFE
Частота : 48,0 КГц
Частота кадров : 31,250 кадров/сек (1536 spf)
Метод сжатия : С потерями
Размер потока : 489 Мбайт (6%)
Язык : English
Default : Нет
Forced : Нет
Текст #1
Идентификатор : 4
Формат : UTF-8
Идентификатор кодека : S_TEXT/UTF8
Идентификатор кодека/Информация : UTF-8 Plain Text
Язык : Russian
Default : Нет
Forced : Нет
Текст #2
Идентификатор : 5
Формат : UTF-8
Идентификатор кодека : S_TEXT/UTF8
Идентификатор кодека/Информация : UTF-8 Plain Text
Язык : English
Default : Нет
Forced : Нет
Меню
00:00:00.000 : en:00:00:00.000
00:06:01.695 : en:00:06:01.695
00:10:42.433 : en:00:10:42.433
00:14:55.394 : en:00:14:55.394
00:19:18.741 : en:00:19:18.741
00:25:52.342 : en:00:25:52.342
00:32:02.921 : en:00:32:02.921
00:37:13.481 : en:00:37:13.481
00:43:34.529 : en:00:43:34.529
00:52:17.259 : en:00:52:17.259
01:00:22.536 : en:01:00:22.536
01:07:09.484 : en:01:07:09.484
01:10:57.920 : en:01:10:57.920
01:18:39.590 : en:01:18:39.590
01:23:46.104 : en:01:23:46.104
01:31:00.538 : en:01:31:00.538
01:36:46.592 : en:01:36:46.592
01:39:41.642 : en:01:39:41.642
 GOLD TORRENT! DOWNLOAD TRAFFIC DOES NOT CONSIDER! 
Torrent: Registered [ 2017-11-09 20:47 ]   · 8500904FD2E7ABB917C73AA472EF2EBDABA9EE55

Download .torrent

Download

39 KB

Status: checked
Completed: 0 times
Size: 7.55 GB
Поделиться:
terms.php
[Profile] [PM]
Display posts:    
Reply to topic

Current time is: 23-Jun 19:04

All times are UTC + 3



You cannot post new topics in this forum
You cannot reply to topics in this forum
You cannot edit your posts in this forum
You cannot delete your posts in this forum
You cannot vote in polls in this forum
You cannot attach files in this forum
You can download files in this forum