Лукас / Lucas (1986) BDRemux 1080р | A

Reply to topic
DL-List and Torrent activity [Update пиров]
Size:  20.49 GB   |    Registered:  3 years 10 months   |    Completed:  0 times

Seeder not seen: Never

Leechers:  2  [  0 KB/s  ]   Show peers in full details
 
   
 
 
Author Message

admin ®

Gender: Male

Longevity: 3 years 11 months

Posts: 12952

Post 09-Nov-2017 20:18

[Quote]

Информация о фильме
Название: Лукас
Оригинальное название: Lucas
Год выхода: 1986
Жанр: драма, мелодрама, комедия
Режиссер: Дэвид Зельцер
В ролях: Кори Хэйм, Керри Грин, Чарли Шин, Кортни Торн-Смит, Вайнона Райдер, Том Ходжис, Чиро Поппити, Гай Бойд, Джереми Пивен, Кевин Уикстед
Описание Четырнадцатилетний Лукас больше интересуется тайнами науки и поведением насекомых, чем футболом и вечеринками с девушками. Но вот во время летних каникул он влюбляется в симпатичную шестнадцатилетнюю девчонку, возглавляющую группу приветствия футбольной команды…

Страна: США
Продолжительность: 01:39:37
Перевод 1: Авторский (одноголосый закадровый) Сергей Визгунов
Перевод 2: Авторский (одноголосый закадровый) Михаил Иванов
Субтитры: русские (herscheugh), английские
Оригинальная аудиодорожка: английский
Файл
Качество: BDRemux 1080р
Видео: MPEG-4 AVC / 26852 kbps / 1920x1080 / 23,976 fps / 16:9 / High Profile 4.1
Аудио 1: Russian AC3 / 2.0 / 48 kHz / 192 kbps / 16 bits |Сергей Визгунов|
Аудио 2: Russian AC3 / 2.0 / 48 kHz / 192 kbps / 16 bits |Михаил Иванов|
Аудио 3: English DTS-HD Master Audio / 5.1 / 48 kHz / 2209 kbps / 24-bit (DTS Core: 5.1 / 48 kHz / 1509 kbps / 24-bit) |original|

Скриншоты

MediaInfo

Общее
Уникальный идентификатор : 231703403011490596732118195647536407841 (0xAE5073C3E101D43D8FC8B5CA81D7A521)
Полное имя : Лукас.1986.Blu-Ray.Remux.(1080p).mkv
Формат : Matroska
Версия формата : Version 4 / Version 2
Размер файла : 20,5 Гбайт
Продолжительность : 1 ч. 39 м.
Режим общего битрейта : Переменный
Общий поток : 29,4 Мбит/сек
Дата кодирования : UTC 2017-05-07 14:41:05
Программа кодирования : mkvmerge v11.0.0 ('Alive') 64bit
Библиотека кодирования : libebml v1.3.4 + libmatroska v1.4.5
Attachments : poster.jpg
Видео
Идентификатор : 1
Формат : AVC
Формат/Информация : Advanced Video Codec
Профиль формата : High@L4.1
Параметр CABAC формата : Да
Параметр ReFrames формата : 2 кадра
Идентификатор кодека : V_MPEG4/ISO/AVC
Продолжительность : 1 ч. 39 м.
Вид битрейта : Переменный
Битрейт : 26,9 Мбит/сек
Ширина : 1920 пикселей
Высота : 1080 пикселей
Соотношение сторон : 16:9
Режим частоты кадров : Постоянный
Частота кадров : 23,976 (24000/1001) кадра/сек
Цветовое пространство : YUV
Субдискретизация насыщенности : 4:2:0
Битовая глубина : 8 бит
Тип развёртки : Прогрессивная
Бит/(Пиксели*Кадры) : 0.540
Размер потока : 18,7 Гбайт (91%)
Default : Да
Forced : Нет
Аудио #1
Идентификатор : 2
Формат : AC-3
Формат/Информация : Audio Coding 3
Параметр Endianness формата : Big
Идентификатор кодека : A_AC3
Продолжительность : 1 ч. 39 м.
Вид битрейта : Постоянный
Битрейт : 192 Кбит/сек
Каналы : 2 канала
Расположение каналов : Front: L R
Частота : 48,0 КГц
Частота кадров : 31,250 кадров/сек (1536 spf)
Битовая глубина : 16 бит
Метод сжатия : С потерями
Размер потока : 137 Мбайт (1%)
Заголовок : С. Визгунов
Язык : Russian
Default : Да
Forced : Нет
Аудио #2
Идентификатор : 3
Формат : AC-3
Формат/Информация : Audio Coding 3
Параметр Endianness формата : Big
Идентификатор кодека : A_AC3
Продолжительность : 1 ч. 39 м.
Вид битрейта : Постоянный
Битрейт : 192 Кбит/сек
Каналы : 2 канала
Расположение каналов : Front: L R
Частота : 48,0 КГц
Частота кадров : 31,250 кадров/сек (1536 spf)
Битовая глубина : 16 бит
Метод сжатия : С потерями
Размер потока : 137 Мбайт (1%)
Заголовок : М. Иванов
Язык : Russian
Default : Нет
Forced : Нет
Аудио #3
Идентификатор : 4
Формат : DTS
Формат/Информация : Digital Theater Systems
Профиль формата : MA / Core
Режим : 16
Параметр Endianness формата : Big
Идентификатор кодека : A_DTS
Продолжительность : 1 ч. 39 м.
Вид битрейта : Переменный / Постоянный
Битрейт : 2209 Кбит/сек / 1509 Кбит/сек
Каналы : 6 каналов
Расположение каналов : Front: L C R, Side: L R, LFE
Частота : 48,0 КГц
Частота кадров : 93,750 кадра/сек (512 spf)
Битовая глубина : 16 бит
Метод сжатия : Без потерь / Lossy
Размер потока : 1,54 Гбайт (8%)
Язык : English
Default : Нет
Forced : Нет
Текст #1
Идентификатор : 5
Формат : UTF-8
Идентификатор кодека : S_TEXT/UTF8
Идентификатор кодека/Информация : UTF-8 Plain Text
Продолжительность : 1 ч. 36 м.
Битрейт : 84 бит/сек
ElementCount : 1012
Размер потока : 59,9 Кбайт (0%)
Заголовок : herscheugh
Язык : Russian
Default : Нет
Forced : Нет
Текст #2
Идентификатор : 6
Формат : UTF-8
Идентификатор кодека : S_TEXT/UTF8
Идентификатор кодека/Информация : UTF-8 Plain Text
Продолжительность : 1 ч. 33 м.
Битрейт : 55 бит/сек
ElementCount : 1048
Размер потока : 38,3 Кбайт (0%)
Язык : English
Default : Нет
Forced : Нет
Меню
00:00:00.000 : en:00:00:00.000
00:10:11.319 : en:00:10:11.319
00:21:57.983 : en:00:21:57.983
00:33:09.196 : en:00:33:09.196
00:41:57.181 : en:00:41:57.181
00:49:57.077 : en:00:49:57.077
01:01:37.402 : en:01:01:37.402
01:10:30.309 : en:01:10:30.309
01:20:43.964 : en:01:20:43.964
01:29:49.509 : en:01:29:49.509
01:37:20.418 : en:01:37:20.418
 GOLD TORRENT! DOWNLOAD TRAFFIC DOES NOT CONSIDER! 
Torrent: Registered [ 2017-11-09 20:18 ]   · B2826E996CE93BAC2E0AD8DA074FF0F5E9831AFB

Download .torrent

Download

52 KB

Status: checked
Completed: 0 times
Size: 20.49 GB
Поделиться:
terms.php
[Profile] [PM]
Display posts:    
Reply to topic

Current time is: 25-Sep 12:07

All times are UTC + 3



You cannot post new topics in this forum
You cannot reply to topics in this forum
You cannot edit your posts in this forum
You cannot delete your posts in this forum
You cannot vote in polls in this forum
You cannot attach files in this forum
You can download files in this forum