Странная ночь / Night of Something Strange (2016) BDRip 1080p | L2, A, L1

Reply to topic
DL-List and Torrent activity [Update пиров]
Size:  7.61 GB   |    Registered:  3 years 8 months   |    Completed:  0 times

Seeder not seen: Never

 
   
 
 
Author Message

admin ®

Gender: Male

Longevity: 3 years 10 months

Posts: 12744

Post 09-Nov-2017 20:11

[Quote]

Название: Странная ночь
Оригинальное название: Night of Something Strange
Год выхода: 2016
Страна: США, Канада
Студия: Hurricane Bridge Entertainment, Duke Studios, SRS Cinema
Продолжительность: 01:37:28
Жанр: ужасы, комедия
Режиссер: Джонатан Стрейтон
В ролях: Трей Харрисон, Ребекка С. Касек, Уэйн В. Джонсон, Майкл Мерчант, Тони Энн Гэмбэйл, Николя Фиоре, Джон Уолш, Джанет Мэйсон, Теренс Тейлор, Кера О’Брайон, ...
Перевод:
- Любительский (двуголосый закадровый) DeadSno & den904
- Авторский (одноголосый, закадровый) RussianGuy27
- Любительский (одноголосый, закадровый) Xixidok
О фильме: Пять друзей-подростков отправились на пляж расслабиться во время весенних каникул. Расслабон заканчивается, когда одна из подружек, Кэрри, подхватывает смертельное заболевание, посидев на грязном толчке в придорожной забегаловке. Когда ребята останавливаются на ночь в мотеле, настоящий ужас только начинается, когда вирус начинает распространяться, превращая инфицированных людей в живых мертвецов. И если бы это было все…

Кодек: x264
Качество: BDRip 1080p
Видео: 1920x1080, 8654 kbps, 23,976 fps
Аудио #1: AC-3, 2 ch, 192 kbps (Rus) - DeadSno & den904
Аудио #2: AC-3, 6 ch, 640 kbps (Rus) - RussianGuy27
Аудио #3: AC-3, 2 ch, 192 kbps (Rus) - Xixidok
Аудио #4: AC-3, 6 ch, 640 kbps (Eng)
Субтитры: английские
Внимание! В фильме присутствуют сцены с обнаженной натурой и ненормативная лексика!

MediaInfo

Общее
Уникальный идентификатор : 212040159915729424242363743188913684490 (0x9F857307E8C7029BBB166DBC3333000A)
Полное имя : Странная ночь (Night of Something Strange) 2016 BDRip 1080p.mkv
Формат : Matroska
Версия формата : Version 2
Размер файла : 7,61 Гбайт
Продолжительность : 1 ч. 37 м.
Общий поток : 11,2 Мбит/сек
Дата кодирования : UTC 2017-11-09 07:41:17
Программа кодирования : mkvmerge v4.0.0 ('The Stars were mine') сборка от Jun 6 2010 16:18:42
Библиотека кодирования : libebml v1.0.0 + libmatroska v1.0.0
Видео
Идентификатор : 1
Формат : AVC
Формат/Информация : Advanced Video Codec
Профиль формата : High@L4.1
Параметр CABAC формата : Да
Параметр ReFrames формата : 4 кадра
Идентификатор кодека : V_MPEG4/ISO/AVC
Продолжительность : 1 ч. 37 м.
Битрейт : 8654 Кбит/сек
Ширина : 1920 пикселей
Высота : 1080 пикселей
Соотношение сторон : 16:9
Режим частоты кадров : Постоянный
Частота кадров : 23,976 (24000/1001) кадра/сек
Цветовое пространство : YUV
Субдискретизация насыщенности : 4:2:0
Битовая глубина : 8 бит
Тип развёртки : Прогрессивная
Бит/(Пиксели*Кадры) : 0.174
Размер потока : 5,74 Гбайт (75%)
Библиотека кодирования : x264 core 148 r2762 90a61ec
Настройки программы : cabac=1 / ref=4 / deblock=1:-1:-1 / analyse=0x3:0x133 / me=umh / subme=7 / psy=1 / psy_rd=1.00:0.15 / mixed_ref=1 / me_range=16 / chroma_me=1 / trellis=1 / 8x8dct=1 / cqm=0 / deadzone=21,11 / fast_pskip=0 / chroma_qp_offset=-3 / threads=16 / lookahead_threads=2 / sliced_threads=0 / nr=0 / decimate=1 / interlaced=0 / bluray_compat=0 / constrained_intra=0 / bframes=3 / b_pyramid=2 / b_adapt=1 / b_bias=0 / direct=1 / weightb=1 / open_gop=0 / weightp=2 / keyint=250 / keyint_min=23 / scenecut=40 / intra_refresh=0 / rc_lookahead=40 / rc=2pass / mbtree=1 / bitrate=8654 / ratetol=1.0 / qcomp=0.60 / qpmin=0 / qpmax=69 / qpstep=4 / cplxblur=20.0 / qblur=0.5 / ip_ratio=1.40 / aq=1:1.00
Язык : English
Default : Нет
Forced : Нет
Аудио #1
Идентификатор : 2
Формат : AC-3
Формат/Информация : Audio Coding 3
Расширение режима : CM (complete main)
Параметр Endianness формата : Big
Идентификатор кодека : A_AC3
Продолжительность : 1 ч. 37 м.
Вид битрейта : Постоянный
Битрейт : 192 Кбит/сек
Каналы : 2 канала
Расположение каналов : Front: L R
Частота : 48,0 КГц
Частота кадров : 31,250 кадров/сек (1536 spf)
Метод сжатия : С потерями
Размер потока : 134 Мбайт (2%)
Заголовок : DVOL DeadSno & den904
Язык : Russian
Default : Нет
Forced : Нет
Аудио #2
Идентификатор : 3
Формат : AC-3
Формат/Информация : Audio Coding 3
Расширение режима : CM (complete main)
Параметр Endianness формата : Big
Идентификатор кодека : A_AC3
Продолжительность : 1 ч. 37 м.
Вид битрейта : Постоянный
Битрейт : 640 Кбит/сек
Каналы : 6 каналов
Расположение каналов : Front: L C R, Side: L R, LFE
Частота : 48,0 КГц
Частота кадров : 31,250 кадров/сек (1536 spf)
Метод сжатия : С потерями
Размер потока : 446 Мбайт (6%)
Заголовок : VO Сергеев (Черкасов) Сергей (RussianGuy27)
Язык : Russian
Default : Нет
Forced : Нет
Аудио #3
Идентификатор : 4
Формат : AC-3
Формат/Информация : Audio Coding 3
Расширение режима : CM (complete main)
Параметр Endianness формата : Big
Идентификатор кодека : A_AC3
Продолжительность : 1 ч. 37 м.
Вид битрейта : Постоянный
Битрейт : 192 Кбит/сек
Каналы : 2 канала
Расположение каналов : Front: L R
Частота : 48,0 КГц
Частота кадров : 31,250 кадров/сек (1536 spf)
Метод сжатия : С потерями
Размер потока : 134 Мбайт (2%)
Заголовок : VO Xixidok
Язык : Russian
Default : Нет
Forced : Нет
Аудио #4
Идентификатор : 5
Формат : DTS
Формат/Информация : Digital Theater Systems
Режим : 16
Параметр Endianness формата : Big
Идентификатор кодека : A_DTS
Продолжительность : 1 ч. 37 м.
Вид битрейта : Постоянный
Битрейт : 1509 Кбит/сек
Каналы : 6 каналов
Расположение каналов : Front: L C R, Side: L R, LFE
Частота : 48,0 КГц
Частота кадров : 93,750 кадра/сек (512 spf)
Битовая глубина : 16 бит
Метод сжатия : С потерями
Размер потока : 1,03 Гбайт (13%)
Язык : English
Default : Нет
Forced : Нет
Текст
Идентификатор : 6
Формат : UTF-8
Идентификатор кодека : S_TEXT/UTF8
Идентификатор кодека/Информация : UTF-8 Plain Text
Заголовок : SDH
Язык : English
Default : Нет
Forced : Нет
Меню
00:00:00.000 : en:00:00:00.000
00:09:11.676 : en:00:09:11.676
00:16:17.393 : en:00:16:17.393
00:23:36.123 : en:00:23:36.123
00:32:06.800 : en:00:32:06.800
00:41:15.431 : en:00:41:15.431
00:49:11.907 : en:00:49:11.907
00:57:40.123 : en:00:57:40.123
01:07:31.381 : en:01:07:31.381
01:19:05.908 : en:01:19:05.908
01:26:24.554 : en:01:26:24.554
01:32:15.113 : en:01:32:15.113

Скриншоты


 GOLD TORRENT! DOWNLOAD TRAFFIC DOES NOT CONSIDER! 
Torrent: Registered [ 2017-11-09 20:11 ]   · A7ECB351B06544502979AEF4564B809D3F72AB55

Download .torrent

Download

39 KB

Status: checked
Completed: 0 times
Size: 7.61 GB
Поделиться:
terms.php
[Profile] [PM]
Display posts:    
Reply to topic

Current time is: 05-Aug 05:39

All times are UTC + 3



You cannot post new topics in this forum
You cannot reply to topics in this forum
You cannot edit your posts in this forum
You cannot delete your posts in this forum
You cannot vote in polls in this forum
You cannot attach files in this forum
You can download files in this forum