Берлинский синдром / Berlin Syndrome (2017) BDRip-AVC | iTunes

Reply to topic
DL-List and Torrent activity [Update пиров]
Size:  744 MB   |    Registered:  3 years 8 months   |    Completed:  0 times
Seeders:  6  [  0 KB/s  ]   Leechers:  1  [  0 KB/s  ]   Show peers in full details
 
   
 
 
Author Message

admin ®

Gender: Male

Longevity: 3 years 10 months

Posts: 12744

Post 09-Nov-2017 18:30

[Quote]

Информация о фильме
Название: Берлинский синдром
Оригинальное название: Berlin Syndrome
Год выхода: 2017
Жанр: Триллер
Режиссер: Кейт Шортланд
В ролях: Тереза Палмер, Макс Римельт, Люси Арон, Сем Тункай, Маттиас Хабих, Эмма Бадинг, Майя Абсберг, Морган Ферру, Кристина Костив, Чарли Торн
О фильме :
Во время отпуска в Берлине Клэр знакомится с обаятельным Энди и между ними сразу возникает влечение. После совместной прогулки по городу они проводят ночь вместе, но то, что на первый взгляд кажется началом бурного романа, неожиданно принимает зловещий оборот.

Страна: Австралия, Германия
Студия: Aquarius Films, DDP Studios, Entertainment One, Film Victoria
Продолжительность: 01:51:36
Перевод: Дублированный | iTunes
Файл
Формат: MKV
Качество: BDRip-AVC (BDRemux 1080i)
Видео: MPEG-4 AVC, 768x320, ~ 856 Кбит/с
Аудио: AAC-LC, 2 ch, ~ 76 Кбит/с
Субтитры: Русские, английские

MI

Общее
Уникальный идентификатор : 250359969196210669729503028646584803155 (0xBC59937EE64EAE77A6CD5773F56C5F53)
Полное имя : D:MOVIESBerlin.Syndrome.2017.ExKinoRay.mkv
Формат : Matroska
Версия формата : Version 4 / Version 2
Размер файла : 744 Мбайт
Продолжительность : 1 ч. 51 м.
Общий поток : 933 Кбит/сек
Дата кодирования : UTC 2017-11-09 05:09:12
Программа кодирования : mkvmerge v15.0.0 ('Duel with the Devil') 64-bit
Библиотека кодирования : libebml v1.3.5 + libmatroska v1.4.5
Видео
Идентификатор : 1
Формат : AVC
Формат/Информация : Advanced Video Codec
Профиль формата : High@L4.1
Параметр CABAC формата : Да
Параметр RefFrames формата : 10 кадров
Идентификатор кодека : V_MPEG4/ISO/AVC
Продолжительность : 1 ч. 51 м.
Битрейт : 856 Кбит/сек
Ширина : 768 пикселей
Высота : 320 пикселей
Соотношение сторон : 2,40:1
Режим частоты кадров : Постоянный
Частота кадров : 25,000 кадров/сек
Цветовое пространство : YUV
Субдискретизация насыщенности : 4:2:0
Битовая глубина : 8 бит
Тип развёртки : Прогрессивная
Бит/(Пиксели*Кадры) : 0.139
Размер потока : 682 Мбайт (92%)
Библиотека кодирования : x264 core 152 r2851kMod ba24899
Настройки программы : cabac=1 / ref=10 / deblock=1:-2:-2 / analyse=0x3:0x133 / me=umh / subme=11 / psy=1 / fade_compensate=0.00 / psy_rd=1.00:0.05 / mixed_ref=1 / me_range=32 / chroma_me=1 / trellis=2 / 8x8dct=1 / cqm=0 / deadzone=21,11 / fast_pskip=0 / chroma_qp_offset=-3 / threads=6 / lookahead_threads=1 / sliced_threads=0 / nr=0 / decimate=0 / interlaced=0 / bluray_compat=0 / constrained_intra=0 / bframes=10 / b_pyramid=2 / b_adapt=2 / b_bias=0 / direct=3 / weightb=1 / open_gop=0 / weightp=2 / keyint=250 / keyint_min=24 / scenecut=40 / intra_refresh=0 / rc_lookahead=40 / rc=2pass / mbtree=0 / bitrate=856 / ratetol=1.0 / qcomp=0.60 / qpmin=0 / qpmax=69 / qpstep=4 / cplxblur=20.0 / qblur=0.5 / vbv_maxrate=50000 / vbv_bufsize=62500 / nal_hrd=none / filler=0 / ip_ratio=1.40 / pb_ratio=1.30 / aq=3:1.00
Default : Да
Forced : Нет
Аудио
Идентификатор : 2
Формат : AAC
Формат/Информация : Advanced Audio Codec
Профиль формата : LC
Идентификатор кодека : A_AAC
Продолжительность : 1 ч. 51 м.
Битрейт : 76,0 Кбит/сек
Каналы : 2 канала
Расположение каналов : Front: L R
Частота : 48,0 КГц
Частота кадров : 46,875 кадров/сек (1024 SPF)
Метод сжатия : С потерями
Задержка видео : 9 мс.
Размер потока : 60,6 Мбайт (8%)
Default : Да
Forced : Нет
Текст #1
Идентификатор : 3
Формат : UTF-8
Идентификатор кодека : S_TEXT/UTF8
Идентификатор кодека/Информация : UTF-8 Plain Text
Продолжительность : 1 ч. 45 м.
Битрейт : 29 бит/сек
ElementCount : 579
Размер потока : 22,6 Кбайт (0%)
Заголовок : Full
Язык : Russian
Default : Нет
Forced : Нет
Текст #2
Идентификатор : 4
Формат : UTF-8
Идентификатор кодека : S_TEXT/UTF8
Идентификатор кодека/Информация : UTF-8 Plain Text
Продолжительность : 1 ч. 45 м.
Битрейт : 46 бит/сек
ElementCount : 767
Размер потока : 35,7 Кбайт (0%)
Заголовок : SDH Colored
Язык : English
Default : Нет
Forced : Нет
Меню
00:00:00.000 : en:Chapter 1
00:06:05.080 : en:Chapter 2
00:14:47.840 : en:Chapter 3
00:24:45.200 : en:Chapter 4
00:36:56.080 : en:Chapter 5
00:45:32.720 : en:Chapter 6
00:51:47.160 : en:Chapter 7
01:00:08.320 : en:Chapter 8
01:09:28.720 : en:Chapter 9
01:20:33.520 : en:Chapter 10
01:27:53.200 : en:Chapter 11
01:37:26.640 : en:Chapter 12
01:46:31.520 : en:Chapter 13

Скриншоты


 GOLD TORRENT! DOWNLOAD TRAFFIC DOES NOT CONSIDER! 
Torrent: Registered [ 2017-11-09 18:30 ]   · 0793E29CA40E58940977CD9386C3DA89C3D42105

Download .torrent

Download

16 KB

Status: checked
Completed: 0 times
Size: 744 MB
Поделиться:
terms.php
[Profile] [PM]
Display posts:    
Reply to topic

Current time is: 05-Aug 05:27

All times are UTC + 3



You cannot post new topics in this forum
You cannot reply to topics in this forum
You cannot edit your posts in this forum
You cannot delete your posts in this forum
You cannot vote in polls in this forum
You cannot attach files in this forum
You can download files in this forum