Патти Кейкс / Patti Cake$ (2017) WEBRip 720p | L2

Reply to topic
DL-List and Torrent activity [Update пиров]
Size:  3.12 GB   |    Registered:  3 years 10 months   |    Completed:  0 times
Seeders:  3  [  0 KB/s  ]   Leechers:  3  [  0 KB/s  ]   Show peers in full details
 
   
 
 
Author Message

admin ®

Gender: Male

Longevity: 3 years 11 months

Posts: 12952

Post 09-Nov-2017 13:34

[Quote]

Информация о фильме
Название: Патти Кейкс
Оригинальное название: Patti Cake$
Год выхода: 2017
Жанр: Драма
Режиссер: Джереми Джаспер
В ролях: Даниэль МакДональд, Бриджет Эверетт, Siddharth Dhananjay, Мамуду Ати, Кэти Мориарти, МакКаул Ломбарди, Патрик Брана, Дилан Блу, Уоррен Буб, Mackenzie Grace Castle и другие
О фильме:
История Патрисии Дамбровски — полной белой девушки из маленького городка в Джерси, мечтающей о славе рэперши. Жизнь Патрисии разваливается, на плечах мамины неудачи и несчастья, а единственный, кто верит в талант девушки — её бабушка.

Страна: США, Department of Motion Pictures, The, RT Features
Продолжительность: 01:49:27
Перевод: Любительский (двухголосый закадровый) | RecentFilms
Файл
Кодек: MPEG-4 AVC/H.264
Качество: WEBRip 720p
Видео: 1280x690, 23,976 fps, ~3893 Kbps, 0.184 bit/pixel
Звук:
Аудио rus: AC3, 48 kHz, 2 ch, 192 Kbps
Субтитры: отсутствуют
Реклама: присутствует
Семпл

MediaInfo:

General
Unique ID : 231815326824597154054005866853713050398 (0xAE66020901DE94ECBAE2E99343DBFB1E)
Complete name : F:FilmsPatti.Cakes.2017.720p.WEBRip.RecentFilmsPatti.Cakes.2017.720p.WEBRip.RecentFilms.mkv
Format : Matroska
Format version : Version 4 / Version 2
File size : 3.12 GiB
Duration : 1h 49mn
Overall bit rate : 4 087 Kbps
Encoded date : UTC 2017-11-08 21:44:24
Writing application : mkvmerge v7.8.0 ('River Man') 64bit built on Mar 27 2015 16:31:37
Writing library : libebml v1.3.1 + libmatroska v1.4.2
Video
ID : 1
Format : AVC
Format/Info : Advanced Video Codec
Format profile : Main@L3.2
Format settings, CABAC : Yes
Format settings, ReFrames : 3 frames
Codec ID : V_MPEG4/ISO/AVC
Duration : 1h 49mn
Bit rate : 3 893 Kbps
Width : 1 280 pixels
Height : 690 pixels
Display aspect ratio : 1.85:1
Frame rate mode : Constant
Frame rate : 23.976 (24000/1001) fps
Standard : NTSC
Color space : YUV
Chroma subsampling : 4:2:0
Bit depth : 8 bits
Scan type : Progressive
Bits/(Pixel*Frame) : 0.184
Stream size : 2.98 GiB (95%)
Language : English
Default : Yes
Forced : No
Color range : Limited
Color primaries : BT.709
Transfer characteristics : BT.709
Matrix coefficients : BT.709
Audio
ID : 2
Format : AC-3
Format/Info : Audio Coding 3
Mode extension : CM (complete main)
Format settings, Endianness : Big
Codec ID : A_AC3
Duration : 1h 49mn
Bit rate mode : Constant
Bit rate : 192 Kbps
Channel(s) : 2 channels
Channel positions : Front: L R
Sampling rate : 48.0 KHz
Frame rate : 31.250 fps (1536 spf)
Compression mode : Lossy
Stream size : 150 MiB (5%)
Default : Yes
Forced : No

Скриншоты

 GOLD TORRENT! DOWNLOAD TRAFFIC DOES NOT CONSIDER! 
Torrent: Registered [ 2017-11-09 13:34 ]   · 9D55B7456B649AE02BE9B0B40082109AE2A8CBD1

Download .torrent

Download

17 KB

Status: T temporary
Completed: 0 times
Size: 3.12 GB
Поделиться:
terms.php
[Profile] [PM]
Display posts:    
Reply to topic

Current time is: 18-Sep 07:46

All times are UTC + 3



You cannot post new topics in this forum
You cannot reply to topics in this forum
You cannot edit your posts in this forum
You cannot delete your posts in this forum
You cannot vote in polls in this forum
You cannot attach files in this forum
You can download files in this forum