Готика / Gothika (2003) BDRip-HEVC 1080p | D

Reply to topic
DL-List and Torrent activity [Update пиров]
Size:  4.23 GB   |    Registered:  3 years 3 months   |    Completed:  0 times
Seeders:  17  [  0 KB/s  ]   Show peers in full details
 
   
 
 
Author Message

admin ®

Gender: Male

Longevity: 3 years 5 months

Posts: 10244

Post 09-Nov-2017 09:49

[Quote]

Информация о фильме
Название: Готика
Оригинальное название: Gothika
Год выхода: 2003
Жанр: триллер, ужасы, детектив
Режиссер: Матьё Кассовиц
В ролях: Холли Берри, Роберт Дауни мл., Чарльз С. Даттон, Джон Кэрролл Линч, Бернард Хилл, Пенелопа Крус, Дориан Хэрвуд, Бронуэн Мэнтел, Кэтлин Мэкки, Мэттью Дж. Тейлор, Мишель Перрон, Андреа Шелдон, Анана Ридвальд, Лаура Митчелл, Эми Слоун, Ноэль Бертон, Бенц Антуан, Андерсон С. Брэдшоу, Джейсон Кавалье, Джейссон Финни, Терри Симпсон, Кваси Сонгуи, Кэролайн Ван Влаардинген, Аль Вандекруис, Ной Бернетт
О фильме:
Фильм повествует о женщине-психиатре, которая однажды оказывается пациенткой больницы для невменяемых преступников, где она прежде работала. Вдобавок ко всему, её обвиняют в совершении жестокого убийства, о котором она ничего не помнит. Пытаясь разобраться в происходящем, она сталкивается с необъяснимыми мистическими происшествиями…

Страна: США
Студия: Columbia Pictures Corporation, Dark Castle Entertainment, Warner Bros. Pictures
Продолжительность: 01:38:07
Перевод: Дублированный
Файл
Кодек: HEVC x265 10 bit
Качество: BDRip-HEVC 1080p
Видео: 1920x1040 (1.85:1), 5086 Кбит/сек, 0.106 бит/(Пиксели*Кадры), 23.976 (24000/1001) кадр/сек, HEVC (Main10@L.5.1@High) 10 бит
Звук:
Русская, AC3, 448 kb/s, Front: L C R, Side: L R, LFE, 48.0 kHz (Дубляж)
Английская, AC3, 640 kb/s, Front: L C R, Side: L R, LFE, 48.0 kHz (Оригинал)
Субтитры: Русские, английские
Семпл

MediaInfo

General
Unique ID : 234657279880279138455595634005611475583 (0xB089592391A48DEAB143FFDF2499727F)
Complete name : I:HEVC 210 BITGotyka_2003_BDRip_1080p_[HEVC]_10bit.mkv
Format : Matroska
Format version : Version 4 / Version 2
File size : 4.23 GiB
Duration : 1 h 38 min
Overall bit rate : 6 172 kb/s
Encoded date : UTC 2017-11-08 17:30:39
Writing application : mkvmerge v9.9.0 ('Pick Up') 64bit
Writing library : libebml v1.3.4 + libmatroska v1.4.5
Cover : Yes
Attachments : cover.png
Video
ID : 1
Format : HEVC
Format/Info : High Efficiency Video Coding
Codec ID : V_MPEGH/ISO/HEVC
Duration : 1 h 38 min
Bit rate : 5 086 kb/s
Width : 1 920 pixels
Height : 1 040 pixels
Display aspect ratio : 1.85:1
Frame rate mode : Constant
Frame rate : 23.976 (24000/1001) FPS
Bits/(Pixel*Frame) : 0.106
Stream size : 3.49 GiB (82%)
Default : Yes
Forced : Yes
Audio #1
ID : 2
Format : AC-3
Format/Info : Audio Coding 3
Format settings, Endianness : Big
Codec ID : A_AC3
Duration : 1 h 38 min
Bit rate mode : Constant
Bit rate : 448 kb/s
Channel(s) : 6 channels
Channel positions : Front: L C R, Side: L R, LFE
Sampling rate : 48.0 kHz
Frame rate : 31.250 FPS (1536 SPF)
Bit depth : 16 bits
Compression mode : Lossy
Stream size : 315 MiB (7%)
Language : Russian
Service kind : Complete Main
Default : Yes
Forced : No
Audio #2
ID : 3
Format : AC-3
Format/Info : Audio Coding 3
Format settings, Endianness : Big
Codec ID : A_AC3
Duration : 1 h 38 min
Bit rate mode : Constant
Bit rate : 640 kb/s
Channel(s) : 6 channels
Channel positions : Front: L C R, Side: L R, LFE
Sampling rate : 48.0 kHz
Frame rate : 31.250 FPS (1536 SPF)
Bit depth : 16 bits
Compression mode : Lossy
Stream size : 449 MiB (10%)
Language : English
Service kind : Complete Main
Default : No
Forced : No
Text #1
ID : 4
Format : UTF-8
Codec ID : S_TEXT/UTF8
Codec ID/Info : UTF-8 Plain Text
Duration : 1 h 33 min
Bit rate : 72 b/s
Count of elements : 804
Stream size : 49.7 KiB (0%)
Language : Russian
Default : Yes
Forced : No
Text #2
ID : 5
Format : UTF-8
Codec ID : S_TEXT/UTF8
Codec ID/Info : UTF-8 Plain Text
Duration : 1 h 32 min
Bit rate : 40 b/s
Count of elements : 789
Stream size : 27.4 KiB (0%)
Language : Russian
Default : No
Forced : No

x265

y4m [info]: 1920x1040 fps 24000/1001 i420p10 unknown frame count
raw [info]: output file: E:Temp21_41_31_1710_04.265
x265 [info]: HEVC encoder version 2.5+20-0967d0add97e
x265 [info]: build info [Windows][GCC 7.2.0][64 bit] 10bit
x265 [info]: using cpu capabilities: MMX2 SSE2Fast LZCNT SSSE3 SSE4.2 AVX FMA3 BMI2 AVX2
x265 [info]: Main 10 profile, Level-5.1 (High tier)
x265 [info]: Thread pool created using 16 threads
x265 [info]: Slices : 1
x265 [info]: frame threads / pool features : 4 / wpp(17 rows)
x265 [info]: Coding QT: max CU size, min CU size : 64 / 8
x265 [info]: Residual QT: max TU size, max depth : 32 / 3 inter / 3 intra
x265 [info]: ME / range / subpel / merge : star / 57 / 7 / 3
x265 [info]: Keyframe min / max / scenecut / bias: 23 / 240 / 40 / 5.00
x265 [info]: Lookahead / bframes / badapt : 40 / 8 / 2
x265 [info]: b-pyramid / weightp / weightb : 0 / 1 / 1
x265 [info]: References / ref-limit cu / depth : 5 / on / on
x265 [info]: AQ: mode / str / qg-size / cu-tree : 1 / 0.3 / 32 / 1
x265 [info]: Rate Control / qCompress : CRF-22.0 / 0.80
x265 [info]: VBV/HRD buffer / max-rate / init : 160000 / 160000 / 0.900
x265 [info]: tools: rect rd=4 psy-rd=0.70 rdoq=1 psy-rdoq=1.20 limit-tu=2
x265 [info]: tools: signhide tmvp lslices=4 deblock(tC=-2:B=-2)
x265 [info]: frame I: 44, Avg QP:21.53 kb/s: 13692.32
x265 [info]: frame P: 814, Avg QP:22.94 kb/s: 6522.46
x265 [info]: frame B: 1692, Avg QP:26.48 kb/s: 1422.29
x265 [info]: Weighted P-Frames: Y:7.7% UV:5.7%
x265 [info]: Weighted B-Frames: Y:9.3% UV:7.4%
x265 [info]: consecutive B-frames: 12.1% 25.4% 33.0% 18.8% 6.8% 2.6% 0.6% 0.3% 0.5%

Скриншоты

 GOLD TORRENT! DOWNLOAD TRAFFIC DOES NOT CONSIDER! 
Torrent: Registered [ 2017-11-09 09:49 ]   · 10927E43F18C93596B6AAB3F387DBD3032180705

Download .torrent

Download

12 KB

Status: checked
Completed: 0 times
Size: 4.23 GB
Поделиться:
terms.php
[Profile] [PM]
Display posts:    
Reply to topic

Current time is: 09-Mar 01:01

All times are UTC + 3



You cannot post new topics in this forum
You cannot reply to topics in this forum
You cannot edit your posts in this forum
You cannot delete your posts in this forum
You cannot vote in polls in this forum
You cannot attach files in this forum
You can download files in this forum