Свадьба на ферме / A Harvest Wedding (2017) HDTVRip 1080p | L2

Reply to topic
DL-List and Torrent activity [Update пиров]
Size:  4.49 GB   |    Registered:  3 years 3 months   |    Completed:  0 times
Seeders:  10  [  0 KB/s  ]   Show peers in full details
 
   
 
 
Author Message

admin ®

Gender: Male

Longevity: 3 years 4 months

Posts: 10149

Post 08-Nov-2017 13:24

[Quote]

Информация о фильме
Название: Свадьба на ферме
Оригинальное название: A Harvest Wedding
Год выхода: 2017
Жанр: Мелодрама, комедия
Режиссер: Стивен Р. Монро
В ролях: Джилл Вагнер, Виктор Уэбстер, Андреа Брукс, Кэтрин Барролл, Джереми Гилбо, Фред Хендерсон, Рейчел Гиллис, Глайнис Дейвис, Чад Райли и другие
О фильме:
Сбежавшая из родного Вильямстауна карьеристка Сара Блум мечтает стать лучшим организатором свадеб в Нью-Йорке. Её приглашают спланировать главную свадьбу сезона, но есть одна проблема: жених родом из того же городка, что и Сара. Он мечтает устроить свадьбу на семейной ферме, которой владеет его старший брат - и по совместительству первая любовь Сары. Сможет ли городская штучка справиться с трудностями сельской жизни, найти свою настоящую любовь и организовать лучшую свадьбу сезона, пусть и не ту, которую она изначально планировала?

Страна: США, Coscas Productions, MrG Production Company, The
Продолжительность: 01:24:19
Перевод: Любительский (двухголосый закадровый) | RecentFilms
Файл
Кодек: MPEG-4 AVC/H.264
Качество: HDTVRip 1080p
Видео: 1916x1080, 23,976 fps, ~7436 Kbps, 0.150 bit/pixel
Звук:
Аудио rus: AC3, 48 kHz, 2 ch, 192 Kbps
Субтитры: отсутствуют
Реклама: присутствует
Семпл

MediaInfo:

General
Unique ID : 240225674127414845262779569191212333979 (0xB4B9C82BFDDF0610830EB411AC84BB9B)
Complete name : F:FilmsA.Harvest.Wedding.2017.1080p.HDTVRip.RecentFilmsA.Harvest.Wedding.2017.1080p.HDTVRip.RecentFilms.mkv
Format : Matroska
Format version : Version 4 / Version 2
File size : 4.49 GiB
Duration : 1h 24mn
Overall bit rate : 7 629 Kbps
Encoded date : UTC 2017-11-07 23:30:00
Writing application : mkvmerge v17.0.0 ('Be Ur Friend') 64-bit
Writing library : libebml v1.3.5 + libmatroska v1.4.8
Video
ID : 1
Format : AVC
Format/Info : Advanced Video Codec
Format profile : High@L4
Format settings, CABAC : No
Format settings, ReFrames : 1 frame
Codec ID : V_MPEG4/ISO/AVC
Duration : 1h 24mn
Bit rate : 7 436 Kbps
Width : 1 916 pixels
Height : 1 080 pixels
Display aspect ratio : 16:9
Frame rate mode : Constant
Frame rate : 23.976 (24000/1001) fps
Original frame rate : 23.976 (23976/1000) fps
Color space : YUV
Chroma subsampling : 4:2:0
Bit depth : 8 bits
Scan type : Progressive
Bits/(Pixel*Frame) : 0.150
Stream size : 4.38 GiB (97%)
Writing library : x264 core 148 r2665 a01e339
Encoding settings : cabac=0 / ref=1 / deblock=1:0:0 / analyse=0x3:0x113 / me=hex / subme=7 / psy=1 / psy_rd=1.00:0.00 / mixed_ref=0 / me_range=16 / chroma_me=1 / trellis=1 / 8x8dct=1 / cqm=0 / deadzone=21,11 / fast_pskip=1 / chroma_qp_offset=-2 / threads=12 / lookahead_threads=2 / sliced_threads=0 / nr=0 / decimate=1 / interlaced=0 / bluray_compat=0 / constrained_intra=0 / bframes=0 / weightp=2 / keyint=250 / keyint_min=23 / scenecut=40 / intra_refresh=0 / rc_lookahead=40 / rc=abr / mbtree=1 / bitrate=7436 / ratetol=1.0 / qcomp=0.60 / qpmin=0 / qpmax=69 / qpstep=4 / ip_ratio=1.40 / aq=1:1.00
Default : Yes
Forced : No
Audio
ID : 2
Format : AC-3
Format/Info : Audio Coding 3
Mode extension : CM (complete main)
Format settings, Endianness : Big
Codec ID : A_AC3
Duration : 1h 24mn
Bit rate mode : Constant
Bit rate : 192 Kbps
Channel(s) : 2 channels
Channel positions : Front: L R
Sampling rate : 48.0 KHz
Frame rate : 31.250 fps (1536 spf)
Compression mode : Lossy
Stream size : 116 MiB (3%)
Default : Yes
Forced : No

Скриншоты

 GOLD TORRENT! DOWNLOAD TRAFFIC DOES NOT CONSIDER! 
Torrent: Registered [ 2017-11-08 13:24 ]   · AB7EDDF348435CE9E4E96BBAB811E5794F3CFF91

Download .torrent

Download

12 KB

Status: T temporary
Completed: 0 times
Size: 4.49 GB
Поделиться:
terms.php
[Profile] [PM]
Display posts:    
Reply to topic

Current time is: 25-Feb 00:08

All times are UTC + 3



You cannot post new topics in this forum
You cannot reply to topics in this forum
You cannot edit your posts in this forum
You cannot delete your posts in this forum
You cannot vote in polls in this forum
You cannot attach files in this forum
You can download files in this forum