Любовь всей моей жизни / Love of My life (2017) WEBRip 720p | L2

Reply to topic
DL-List and Torrent activity [Update пиров]
Size:  3.07 GB   |    Registered:  3 years 3 months   |    Completed:  0 times
Seeders:  6  [  0 KB/s  ]   Leechers:  5  [  0 KB/s  ]   Show peers in full details
 
   
 
 
Author Message

admin ®

Gender: Male

Longevity: 3 years 4 months

Posts: 10149

Post 07-Nov-2017 00:10

[Quote]

Информация о фильме
Название: Любовь всей моей жизни
Оригинальное название: Love of My life
Год выхода: 2017
Жанр: Драма, комедия
Режиссер: Джоан Карр-Уиггин
В ролях: Анна Чэнселлор, Джон Ханна, Гермиона Норрис, Джеймс Флит, Ханна Андерсон, Кэти Боланд, Скотт Квальейру, Грег Ованессян, Миша Расайя и другие.
О фильме:
Что, если у тебя только пять дней на то... чтобы узнать всё.

Страна: Канада
Продолжительность: 01:46:10
Перевод: Любительский (двухголосый закадровый) | RecentFilms
Файл
Кодек: MPEG-4 AVC/H.264
Качество: WEBRip 720p
Видео: 1280x720, 23,976 fps, ~3941 Kbps, 0.178 bit/pixel
Звук:
Аудио rus: AC3, 48 kHz, 2 ch, 192 Kbps
Субтитры: отсутствуют
Реклама: присутствует
Семпл

MediaInfo:

General
Unique ID : 250178992126231472701712555503422090361 (0xBC36B8A322BB3CB689AEC6EACB0D2C79)
Complete name : F:FilmsLove.of.My.Life.2017.720p.BRRip.RecentFilmsLove.of.My.Life.2017.720p.BRRip.RecentFilms.mkv
Format : Matroska
Format version : Version 4 / Version 2
File size : 3.07 GiB
Duration : 1h 46mn
Overall bit rate : 4 135 Kbps
Encoded date : UTC 2017-11-05 17:51:02
Writing application : mkvmerge v7.8.0 ('River Man') 64bit built on Mar 27 2015 16:31:37
Writing library : libebml v1.3.1 + libmatroska v1.4.2
Video
ID : 1
Format : AVC
Format/Info : Advanced Video Codec
Format profile : Main@L3.2
Format settings, CABAC : Yes
Format settings, ReFrames : 3 frames
Codec ID : V_MPEG4/ISO/AVC
Duration : 1h 46mn
Bit rate : 3 941 Kbps
Width : 1 280 pixels
Height : 720 pixels
Display aspect ratio : 16:9
Frame rate mode : Constant
Frame rate : 23.976 (24000/1001) fps
Standard : NTSC
Color space : YUV
Chroma subsampling : 4:2:0
Bit depth : 8 bits
Scan type : Progressive
Bits/(Pixel*Frame) : 0.178
Stream size : 2.92 GiB (95%)
Language : English
Default : Yes
Forced : No
Color range : Limited
Color primaries : BT.709
Transfer characteristics : BT.709
Matrix coefficients : BT.709
Audio
ID : 2
Format : AC-3
Format/Info : Audio Coding 3
Mode extension : CM (complete main)
Format settings, Endianness : Big
Codec ID : A_AC3
Duration : 1h 46mn
Bit rate mode : Constant
Bit rate : 192 Kbps
Channel(s) : 2 channels
Channel positions : Front: L R
Sampling rate : 48.0 KHz
Frame rate : 31.250 fps (1536 spf)
Compression mode : Lossy
Stream size : 146 MiB (5%)
Default : Yes
Forced : No

Скриншоты

 GOLD TORRENT! DOWNLOAD TRAFFIC DOES NOT CONSIDER! 
Torrent: Registered [ 2017-11-07 00:10 ]   · 9FEFAB396CE96BDC4A21289D53F2C7B9062A569C

Download .torrent

Download

16 KB

Status: T temporary
Completed: 0 times
Size: 3.07 GB
Поделиться:
terms.php
[Profile] [PM]
Display posts:    
Reply to topic

Current time is: 24-Feb 22:47

All times are UTC + 3



You cannot post new topics in this forum
You cannot reply to topics in this forum
You cannot edit your posts in this forum
You cannot delete your posts in this forum
You cannot vote in polls in this forum
You cannot attach files in this forum
You can download files in this forum