Любовь всей моей жизни / Love of My life (2017) WEBRip | L2

Reply to topic
DL-List and Torrent activity [Update пиров]
Size:  1.37 GB   |    Registered:  3 years 8 months   |    Completed:  0 times
Seeders:  15  [  0 KB/s  ]   Leechers:  4  [  0 KB/s  ]   Show peers in full details
 
   
 
 
Author Message

admin ®

Gender: Male

Longevity: 3 years 10 months

Posts: 12744

Post 07-Nov-2017 00:05

[Quote]

Информация о фильме
Название: Любовь всей моей жизни
Оригинальное название: Love of My life
Год выхода: 2017
Жанр: Драма, комедия
Режиссер: Джоан Карр-Уиггин
В ролях: Анна Чэнселлор, Джон Ханна, Гермиона Норрис, Джеймс Флит, Ханна Андерсон, Кэти Боланд, Скотт Квальейру, Грег Ованессян, Миша Расайя и другие.
О фильме:
Что, если у тебя только пять дней на то... чтобы узнать всё.

Страна: Канада
Продолжительность: 01:46:10
Перевод: Любительский (двухголосый закадровый) | RecentFilms
Файл
Кодек: XviD
Качество: WEBRip
Видео: 720x400, 23,976 fps, ~1639 Kbps, 0.24 bit/pixel
Звук:
Аудио rus: AC3, 48 kHz, 2 ch, 192 Kbps
Субтитры: отсутствуют
Реклама: присутствует
Семпл

MediaInfo:

General
Complete name : F:FilmsLove.of.My.Life.2017.BRRip.RecentFilmsLove.of.My.Life.2017.BRRip.RecentFilms.avi
Format : AVI
Format/Info : Audio Video Interleave
File size : 1.37 GiB
Duration : 1h 46mn
Overall bit rate : 1 841 Kbps
Writing application : VirtualDubMod 1.5.10.2 (build 2540/release)
Writing library : VirtualDubMod build 2540/release
Video
ID : 0
Format : MPEG-4 Visual
Format profile : Advanced Simple@L5
Format settings, BVOP : 1
Format settings, QPel : No
Format settings, GMC : No warppoints
Format settings, Matrix : Default (H.263)
Codec ID : XVID
Codec ID/Hint : XviD
Duration : 1h 46mn
Bit rate : 1 640 Kbps
Width : 720 pixels
Height : 400 pixels
Display aspect ratio : 16:9
Frame rate : 23.976 (24000/1001) fps
Color space : YUV
Chroma subsampling : 4:2:0
Bit depth : 8 bits
Scan type : Progressive
Compression mode : Lossy
Bits/(Pixel*Frame) : 0.237
Stream size : 1.22 GiB (89%)
Writing library : XviD 67
Audio
ID : 1
Format : AC-3
Format/Info : Audio Coding 3
Mode extension : CM (complete main)
Format settings, Endianness : Big
Codec ID : 2000
Duration : 1h 46mn
Bit rate mode : Constant
Bit rate : 192 Kbps
Channel(s) : 2 channels
Channel positions : Front: L R
Sampling rate : 48.0 KHz
Frame rate : 31.250 fps (1536 spf)
Compression mode : Lossy
Stream size : 146 MiB (10%)
Alignment : Split accross interleaves
Interleave, duration : 42 ms (1.00 video frame)
Interleave, preload duration : 500 ms

Скриншоты

 GOLD TORRENT! DOWNLOAD TRAFFIC DOES NOT CONSIDER! 
Torrent: Registered [ 2017-11-07 00:05 ]   · 3EE716080C7698EBF324C7FCDF5EC32728DBF831

Download .torrent

Download

15 KB

Status: T temporary
Completed: 0 times
Size: 1.37 GB
Поделиться:
terms.php
[Profile] [PM]
Display posts:    
Reply to topic

Current time is: 03-Aug 01:25

All times are UTC + 3



You cannot post new topics in this forum
You cannot reply to topics in this forum
You cannot edit your posts in this forum
You cannot delete your posts in this forum
You cannot vote in polls in this forum
You cannot attach files in this forum
You can download files in this forum