На гребне волны / Point Break (1991) WEB-DL 720p | D, P, P2, A | Open Matte

Reply to topic
DL-List and Torrent activity [Update пиров]
Size:  7.64 GB   |    Registered:  3 years 8 months   |    Completed:  0 times
Seeders:  14  [  0 KB/s  ]   Show peers in full details
 
   
 
 
Author Message

admin ®

Gender: Male

Longevity: 3 years 10 months

Posts: 12744

Post 05-Nov-2017 21:48

[Quote]

Информация о фильме
Название: На гребне волны
Оригинальное название: Point Break
Год выхода: 1991
Жанр: боевик, триллер, криминал
Режиссер: Кэтрин Бигелоу
В ролях: Патрик Суэйзи, Киану Ривз, Гэри Бьюзи, Лори Петти, Джон К. МакГинли, Джеймс ЛеГрос, Джон Филбин, Боджесси Кристофер, Джулиан Рейес, Дэниэл Бир
О фильме:
Таинственная банда серфингистов среди белого дня совершает ограбления банков. Полиция и ФБР поражены профессиональностью и скоростью проведения преступлений.
Следствие ведет молодой и претенциозный агент ФБР, который, рискуя жизнью, внедряется в банду и раскрывает это дело, но неожиданно для самого себя он осознает, что вернуться к нормальной жизни он уже не сможет.

Страна: США, Япония
Студия: JVC Entertainment, Largo Entertainment
Продолжительность: 01:57:03
Перевод: Профессиональный (многоголосый, закадровый) Киномания + Профессиональный (двухголосый, закадровый) П.Гланц и И.Королева + Профессиональный (дублированный) Хлопушка + Профессиональный (многоголосый, закадровый) ТВ3/iTunes + Профессиональный (многоголосый, закадровый) Россия/РТР + Профессиональный (многоголосый, закадровый) ОРТ + Профессиональный (двухголосый, закадровый) Премьер Видео + Профессиональный (многоголосый, закадровый) Лазер Видео + Авторский (одноголосый, закадровый) А.Матвеев + Авторский (одноголосый, закадровый) А.Гаврилов (ранний) + Авторский (одноголосый, закадровый) А.Гаврилов (поздний) + Авторский (одноголосый, закадровый) Ю.Живов + Авторский (одноголосый, закадровый) А.Багичев + Авторский (одноголосый, закадровый) А.Дольский + Профессиональный (двухголосый, закадровый) 1+1 + Профессиональный (многоголосый, закадровый) ICTV
Файл
Качество: WEB-DL 720p | Open Matte
Формат: Matroska
Видео: 958@1277x720 at 25.000 fps, MPEG-4 AVC, ~3883 kbps avg
Аудио#1: Russian: 48 kHz, AC3, 3/2 (L,C,R,l,r) + LFE ch, ~448 kbps avg |Профессиональный многоголосый, Киномания|
Аудио#2: Russian: 48 kHz, AC3, 3/2 (L,C,R,l,r) + LFE ch, ~448 kbps avg |Профессиональный двухголосый, П.Гланц и И.Королева|
Аудио#3: Russian: 48 kHz, AC3, 2/0 (L,R) ch, ~192 kbps avg |Дубляж, Хлопушка|
Аудио#4: Russian: 48 kHz, AC3, 2/0 (L,R) ch, ~192 kbps avg |Профессиональный многоголосый, ТВ3/iTunes|
Аудио#5: Russian: 48 kHz, AC3, 2/0 (L,R) ch, ~192 kbps avg |Профессиональный многоголосый, Россия/РТР|
Аудио#6: Russian: 48 kHz, AC3, 2/0 (L,R) ch, ~224 kbps avg |Профессиональный многоголосый, ОРТ|
Аудио#7: Russian: 48 kHz, AC3, 2/0 (L,R) ch, ~256 kbps avg |Профессиональный двухголосый, Премьер Видео|
Аудио#8: Russian: 48 kHz, AC3, 2/0 (L,R) ch, ~224 kbps avg |Профессиональный многоголосый, Лазер Видео|
Аудио#9: Russian: 48 kHz, AC3, 3/2 (L,C,R,l,r) + LFE ch, ~448 kbps avg |Авторский, А.Матвеев|
Аудио#10: Russian: 48 kHz, AC3, 3/2 (L,C,R,l,r) + LFE ch, ~448 kbps avg |Авторский, А.Гаврилов (ранний)|
Аудио#11: Russian: 48 kHz, AC3, 3/2 (L,C,R,l,r) + LFE ch, ~448 kbps avg |Авторский, А.Гаврилов (поздний)|
Аудио#12: Russian: 48 kHz, AC3, 3/2 (L,C,R,l,r) + LFE ch, ~448 kbps avg |Авторский, Ю.Живов|
Аудио#13: Russian: 48 kHz, AC3, 3/2 (L,C,R,l,r) + LFE ch, ~448 kbps avg |Авторский, А.Багичев|
Аудио#14: Russian: 48 kHz, AC3, 1/0 (C) ch, ~96 kbps avg |Авторский, А.Дольский|
Аудио#15: Ukrainian: 48 kHz, AC3, 2/0 (L,R) ch, ~192 kbps avg |Профессиональный двухголосый, 1+1|
Аудио#16: Ukrainian: 48 kHz, AC3, 2/0 (L,R) ch, ~128 kbps avg |Профессиональный многоголосый, ICTV|
Аудио#17: English: 48 kHz, AC3, 3/2 (L,C,R,l,r) + LFE ch, ~448 kbps avg
Субтитры: Russian, English
***Сохранены оригинальные главы.
***Релиз - Vouka.

Знаете ли вы, что...

Мэттью Бродерик мог исполнить роль Джонни Юты.
Маски, которые используют грабители, - карикатуры на бывших президентов США.
Автомобильный номер пикапа Юты в концовке фильма — 549 956 EUE.
Во время захвата наркоторговцев на одной из стен можно заметить постер сингла группы «Metallica» - «One».
Когда Джонни рассказывает Анджело о передвижении Боуди по городу, он говорит, что последний заходил пообедать в ресторан «Patrick’s Roadhouse». Это - реально-существующий ресторан в Лос-Анджелесе. Это - также ссылка на фильм «Придорожная закусочная» (1989), где Патрик Суэйзи сыграл главную роль.
Элизабет Беркли исполнила небольшую роль в фильме, но сцена с её участием была вырезана.
В сцене разговора на пляже между Боуди (Патрик Суэйзи) и Джонни Ютой (Киану Ривз), Боуди говорит, что доска Юты напоминает ему старенький «Шевроллет» модели 1957 года. В фильме «Грязные танцы» (1987) персонаж Суэйзи ездил именно на такой машине.
Слово «fuck» произносится по ходу действия фильма 105 раз.
Изначально фильм должен был называться «Riders On The Storm».
Point break — это благоприятные для серфинга условия, создаваемые каким-либо выступающим участком суши (point) — мысом или волнорезом. Об этот выступ разбивается (break) накатывающая с открытого океана волна. Рожденные в результате новые волны отличаются стабильной частотой и силой. Кроме того, создается зона штиля, которую серфингисты используют, чтобы подгрести к тому месту, где начинаются большие волны.
В фильме героя Суэйзи зовут Бодхи, что является сокращением имени Бодхисатва. Бодхисатвой, согласно буддийской мифологии, называется тот, кто стремится к духовному просветлению.
Ради получения всяческих навыков, необходимых для роли, Киану Ривза прикрепили к настоящему агенту ФБР. Также он брал уроки серфинга и тренировался с футбольной командой.
Две сцены были вырезаны из фильма:
- Бодхи и Юта в грузовике. Юта стреляет из левого окна. «Классный будет денёк, Джонни», — кричит Бодхи.
- Юта с доской для серфинга встречается с Харпом в его кабинете. Харп в ярости орет: «Ты здесь не для того, чтобы снимать девочек!» — на что Юта отвечает: «Правильный термин: «чувихи», сэр!»
Количество трупов: 12.

Blu-ray vs Open Matte



MediaInfo

Общее
Уникальный идентификатор : 173663772000760521849952418055515112799 (0x82A66D0627626CCAB853594212E9855F)
Полное имя : Point.Break.1991.720p.WEB-DL.14xRus.2xUkr.Eng.mkv
Формат : Matroska
Версия формата : Version 4 / Version 2
Размер файла : 7,64 Гбайт
Продолжительность : 1 ч. 57 м.
Общий поток : 9349 Кбит/сек
Название фильма : Point Break (1991) WEB-DL 720p
Дата кодирования : UTC 2015-11-13 22:09:22
Программа кодирования : mkvmerge v8.1.0 ('Psychedelic Postcard') 64bit
Библиотека кодирования : libebml v1.3.1 + libmatroska v1.4.2
Видео
Идентификатор : 1
Формат : AVC
Формат/Информация : Advanced Video Codec
Профиль формата : Main@L3.1
Параметр CABAC формата : Нет
Параметр ReFrames формата : 2 кадра
Идентификатор кодека : V_MPEG4/ISO/AVC
Продолжительность : 1 ч. 57 м.
Битрейт : 3883 Кбит/сек
Ширина : 958 пикселей
Высота : 720 пикселей
Соотношение сторон : 16:9
Режим частоты кадров : Постоянный
Частота кадров : 25,000 кадров/сек
Цветовое пространство : YUV
Субдискретизация насыщенности : 4:2:0
Битовая глубина : 8 бит
Тип развёртки : Прогрессивная
Бит/(Пиксели*Кадры) : 0.225
Размер потока : 3,18 Гбайт (42%)
Язык : English
Default : Да
Forced : Нет
Основные цвета : BT.709
Характеристики трансфера : BT.709
Коэффициенты матрицы : BT.709
Аудио #1
Идентификатор : 2
Формат : AC-3
Формат/Информация : Audio Coding 3
Расширение режима : CM (complete main)
Параметр Endianness формата : Big
Идентификатор кодека : A_AC3
Продолжительность : 1 ч. 57 м.
Вид битрейта : Постоянный
Битрейт : 448 Кбит/сек
Каналы : 6 каналов
Расположение каналов : Front: L C R, Side: L R, LFE
Частота : 48,0 КГц
Битовая глубина : 16 бит
Метод сжатия : С потерями
Размер потока : 375 Мбайт (5%)
Заголовок : Киномания
Язык : Russian
Default : Да
Forced : Нет
Аудио #2
Идентификатор : 3
Формат : AC-3
Формат/Информация : Audio Coding 3
Расширение режима : CM (complete main)
Параметр Endianness формата : Big
Идентификатор кодека : A_AC3
Продолжительность : 1 ч. 57 м.
Вид битрейта : Постоянный
Битрейт : 448 Кбит/сек
Каналы : 6 каналов
Расположение каналов : Front: L C R, Side: L R, LFE
Частота : 48,0 КГц
Битовая глубина : 16 бит
Метод сжатия : С потерями
Размер потока : 375 Мбайт (5%)
Заголовок : Гланц и Королёва
Язык : Russian
Default : Нет
Forced : Нет
Аудио #3
Идентификатор : 4
Формат : AC-3
Формат/Информация : Audio Coding 3
Расширение режима : CM (complete main)
Параметр Endianness формата : Big
Идентификатор кодека : A_AC3
Продолжительность : 1 ч. 57 м.
Вид битрейта : Постоянный
Битрейт : 192 Кбит/сек
Каналы : 2 канала
Расположение каналов : Front: L R
Частота : 48,0 КГц
Битовая глубина : 16 бит
Метод сжатия : С потерями
Размер потока : 161 Мбайт (2%)
Заголовок : Дубляж
Язык : Russian
Default : Нет
Forced : Нет
Аудио #4
Идентификатор : 5
Формат : AC-3
Формат/Информация : Audio Coding 3
Расширение режима : CM (complete main)
Параметр Endianness формата : Big
Идентификатор кодека : A_AC3
Продолжительность : 1 ч. 57 м.
Вид битрейта : Постоянный
Битрейт : 192 Кбит/сек
Каналы : 2 канала
Расположение каналов : Front: L R
Частота : 48,0 КГц
Битовая глубина : 16 бит
Метод сжатия : С потерями
Размер потока : 161 Мбайт (2%)
Заголовок : ТВ3 / Itunes
Язык : Russian
Default : Нет
Forced : Нет
Аудио #5
Идентификатор : 6
Формат : AC-3
Формат/Информация : Audio Coding 3
Расширение режима : CM (complete main)
Параметр Endianness формата : Big
Идентификатор кодека : A_AC3
Продолжительность : 1 ч. 57 м.
Вид битрейта : Постоянный
Битрейт : 192 Кбит/сек
Каналы : 2 канала
Расположение каналов : Front: L R
Частота : 48,0 КГц
Битовая глубина : 16 бит
Метод сжатия : С потерями
Размер потока : 161 Мбайт (2%)
Заголовок : Россия / РТР
Язык : Russian
Default : Нет
Forced : Нет
Аудио #6
Идентификатор : 7
Формат : AC-3
Формат/Информация : Audio Coding 3
Расширение режима : CM (complete main)
Параметр Endianness формата : Big
Идентификатор кодека : A_AC3
Продолжительность : 1 ч. 57 м.
Вид битрейта : Постоянный
Битрейт : 224 Кбит/сек
Каналы : 2 канала
Расположение каналов : Front: L R
Частота : 48,0 КГц
Битовая глубина : 16 бит
Метод сжатия : С потерями
Размер потока : 188 Мбайт (2%)
Заголовок : ОРТ
Язык : Russian
Default : Нет
Forced : Нет
Аудио #7
Идентификатор : 8
Формат : AC-3
Формат/Информация : Audio Coding 3
Расширение режима : CM (complete main)
Параметр Endianness формата : Big
Идентификатор кодека : A_AC3
Продолжительность : 1 ч. 57 м.
Вид битрейта : Постоянный
Битрейт : 256 Кбит/сек
Каналы : 2 канала
Расположение каналов : Front: L R
Частота : 48,0 КГц
Битовая глубина : 16 бит
Метод сжатия : С потерями
Размер потока : 214 Мбайт (3%)
Заголовок : Премьер Видео Фильм
Язык : Russian
Default : Нет
Forced : Нет
Аудио #8
Идентификатор : 9
Формат : AC-3
Формат/Информация : Audio Coding 3
Расширение режима : CM (complete main)
Параметр Endianness формата : Big
Идентификатор кодека : A_AC3
Продолжительность : 1 ч. 57 м.
Вид битрейта : Постоянный
Битрейт : 224 Кбит/сек
Каналы : 2 канала
Расположение каналов : Front: L R
Частота : 48,0 КГц
Битовая глубина : 16 бит
Метод сжатия : С потерями
Размер потока : 188 Мбайт (2%)
Заголовок : Лазер Видео
Язык : Russian
Default : Нет
Forced : Нет
Аудио #9
Идентификатор : 10
Формат : AC-3
Формат/Информация : Audio Coding 3
Расширение режима : CM (complete main)
Параметр Endianness формата : Big
Идентификатор кодека : A_AC3
Продолжительность : 1 ч. 57 м.
Вид битрейта : Постоянный
Битрейт : 448 Кбит/сек
Каналы : 6 каналов
Расположение каналов : Front: L C R, Side: L R, LFE
Частота : 48,0 КГц
Битовая глубина : 16 бит
Метод сжатия : С потерями
Размер потока : 375 Мбайт (5%)
Заголовок : Матвеев (Doctor_Joker)
Язык : Russian
Default : Нет
Forced : Нет
Аудио #10
Идентификатор : 11
Формат : AC-3
Формат/Информация : Audio Coding 3
Расширение режима : CM (complete main)
Параметр Endianness формата : Big
Идентификатор кодека : A_AC3
Продолжительность : 1 ч. 57 м.
Вид битрейта : Постоянный
Битрейт : 448 Кбит/сек
Каналы : 6 каналов
Расположение каналов : Front: L C R, Side: L R, LFE
Частота : 48,0 КГц
Битовая глубина : 16 бит
Метод сжатия : С потерями
Размер потока : 375 Мбайт (5%)
Заголовок : Гаврилов (ранний)
Язык : Russian
Default : Нет
Forced : Нет
Аудио #11
Идентификатор : 12
Формат : AC-3
Формат/Информация : Audio Coding 3
Расширение режима : CM (complete main)
Параметр Endianness формата : Big
Идентификатор кодека : A_AC3
Продолжительность : 1 ч. 57 м.
Вид битрейта : Постоянный
Битрейт : 448 Кбит/сек
Каналы : 6 каналов
Расположение каналов : Front: L C R, Side: L R, LFE
Частота : 48,0 КГц
Битовая глубина : 16 бит
Метод сжатия : С потерями
Размер потока : 375 Мбайт (5%)
Заголовок : Гаврилов (поздний)
Язык : Russian
Default : Нет
Forced : Нет
Аудио #12
Идентификатор : 13
Формат : AC-3
Формат/Информация : Audio Coding 3
Расширение режима : CM (complete main)
Параметр Endianness формата : Big
Идентификатор кодека : A_AC3
Продолжительность : 1 ч. 57 м.
Вид битрейта : Постоянный
Битрейт : 448 Кбит/сек
Каналы : 6 каналов
Расположение каналов : Front: L C R, Side: L R, LFE
Частота : 48,0 КГц
Битовая глубина : 16 бит
Метод сжатия : С потерями
Размер потока : 375 Мбайт (5%)
Заголовок : Живов
Язык : Russian
Default : Нет
Forced : Нет
Аудио #13
Идентификатор : 14
Формат : AC-3
Формат/Информация : Audio Coding 3
Расширение режима : CM (complete main)
Параметр Endianness формата : Big
Идентификатор кодека : A_AC3
Продолжительность : 1 ч. 57 м.
Вид битрейта : Постоянный
Битрейт : 448 Кбит/сек
Каналы : 6 каналов
Расположение каналов : Front: L C R, Side: L R, LFE
Частота : 48,0 КГц
Битовая глубина : 16 бит
Метод сжатия : С потерями
Размер потока : 375 Мбайт (5%)
Заголовок : Багичев
Язык : Russian
Default : Нет
Forced : Нет
Аудио #14
Идентификатор : 15
Формат : AC-3
Формат/Информация : Audio Coding 3
Расширение режима : CM (complete main)
Параметр Endianness формата : Big
Идентификатор кодека : A_AC3
Продолжительность : 1 ч. 57 м.
Вид битрейта : Постоянный
Битрейт : 96,0 Кбит/сек
Каналы : 1 канал
Расположение каналов : Front: C
Частота : 48,0 КГц
Битовая глубина : 16 бит
Метод сжатия : С потерями
Размер потока : 80,4 Мбайт (1%)
Заголовок : Дольский
Язык : Russian
Default : Нет
Forced : Нет
Аудио #15
Идентификатор : 16
Формат : AC-3
Формат/Информация : Audio Coding 3
Расширение режима : CM (complete main)
Параметр Endianness формата : Big
Идентификатор кодека : A_AC3
Продолжительность : 1 ч. 57 м.
Вид битрейта : Постоянный
Битрейт : 192 Кбит/сек
Каналы : 2 канала
Расположение каналов : Front: L R
Частота : 48,0 КГц
Битовая глубина : 16 бит
Метод сжатия : С потерями
Размер потока : 161 Мбайт (2%)
Заголовок : 1+1
Язык : Ukrainian
Default : Нет
Forced : Нет
Аудио #16
Идентификатор : 17
Формат : AC-3
Формат/Информация : Audio Coding 3
Расширение режима : CM (complete main)
Параметр Endianness формата : Big
Идентификатор кодека : A_AC3
Продолжительность : 1 ч. 57 м.
Вид битрейта : Постоянный
Битрейт : 128 Кбит/сек
Каналы : 2 канала
Расположение каналов : Front: L R
Частота : 48,0 КГц
Битовая глубина : 16 бит
Метод сжатия : С потерями
Размер потока : 107 Мбайт (1%)
Заголовок : ICTV
Язык : Ukrainian
Default : Нет
Forced : Нет
Аудио #17
Идентификатор : 18
Формат : AC-3
Формат/Информация : Audio Coding 3
Расширение режима : CM (complete main)
Параметр Endianness формата : Big
Идентификатор кодека : A_AC3
Продолжительность : 1 ч. 57 м.
Вид битрейта : Постоянный
Битрейт : 448 Кбит/сек
Каналы : 6 каналов
Расположение каналов : Front: L C R, Side: L R, LFE
Частота : 48,0 КГц
Битовая глубина : 16 бит
Метод сжатия : С потерями
Размер потока : 375 Мбайт (5%)
Заголовок : Оригинал
Язык : English
Default : Нет
Forced : Нет
Текст #1
Идентификатор : 19
Формат : UTF-8
Идентификатор кодека : S_TEXT/UTF8
Идентификатор кодека/Информация : UTF-8 Plain Text
Заголовок : Матвеев (Doctor_Joker)
Язык : Russian
Default : Нет
Forced : Нет
Текст #2
Идентификатор : 20
Формат : UTF-8
Идентификатор кодека : S_TEXT/UTF8
Идентификатор кодека/Информация : UTF-8 Plain Text
Заголовок : Киномания
Язык : Russian
Default : Нет
Forced : Нет
Текст #3
Идентификатор : 21
Формат : UTF-8
Идентификатор кодека : S_TEXT/UTF8
Идентификатор кодека/Информация : UTF-8 Plain Text
Заголовок : Alex Raynor
Язык : Russian
Default : Нет
Forced : Нет
Текст #4
Идентификатор : 22
Формат : UTF-8
Идентификатор кодека : S_TEXT/UTF8
Идентификатор кодека/Информация : UTF-8 Plain Text
Заголовок : Lisok, Newfog, Olinka
Язык : Russian
Default : Нет
Forced : Нет
Текст #5
Идентификатор : 23
Формат : UTF-8
Идентификатор кодека : S_TEXT/UTF8
Идентификатор кодека/Информация : UTF-8 Plain Text
Язык : English
Default : Нет
Forced : Нет
Меню
00:00:00.000 : en:00:00:00.000
00:04:53.000 : en:00:04:53.000
00:11:14.000 : en:00:11:14.000
00:17:37.000 : en:00:17:37.000
00:22:06.000 : en:00:22:06.000
00:26:27.000 : en:00:26:27.000
00:32:03.000 : en:00:32:03.000
00:36:42.000 : en:00:36:42.000
00:41:46.000 : en:00:41:46.000
00:47:30.000 : en:00:47:30.000
00:54:27.000 : en:00:54:27.000
00:59:43.000 : en:00:59:43.000
01:07:35.000 : en:01:07:35.000
01:13:33.000 : en:01:13:33.000
01:20:17.000 : en:01:20:17.000
01:25:49.000 : en:01:25:49.000
01:30:57.000 : en:01:30:57.000
01:37:16.000 : en:01:37:16.000
01:45:45.000 : en:01:45:45.000

Скриншоты

 GOLD TORRENT! DOWNLOAD TRAFFIC DOES NOT CONSIDER! 
Torrent: Registered [ 2017-11-05 21:48 ]   · 5C39BA1E3AD2EDA951A207C0FDD79D64925C8558

Download .torrent

Download

39 KB

Status: checked
Completed: 0 times
Size: 7.64 GB
Поделиться:
terms.php
[Profile] [PM]
Display posts:    
Reply to topic

Current time is: 28-Jul 14:51

All times are UTC + 3



You cannot post new topics in this forum
You cannot reply to topics in this forum
You cannot edit your posts in this forum
You cannot delete your posts in this forum
You cannot vote in polls in this forum
You cannot attach files in this forum
You can download files in this forum