Феррари / Ferrari (2023) WEB-DL 1080p от New-Team | P | NewStudio

Ответить на тему
Статистика раздачи
Размер:  6.93 GB   |    Зарегистрирован:  11 дней   |    Скачан:  0 раз
Сидов:  687  [  0 KB/s  ]   Личеров:  32  [  0 KB/s  ]   Подробная статистика пиров
 
   
 
 
Автор Сообщение

admin ®

Статус: Не в сети

Пол: Мужской

Стаж: 6 лет 4 месяца

Сообщений: 23635

Репутация: 0 [+] [-]

Откуда: Россия

Создавать темы 11-Фев-2024 21:12 | #1

[Цитировать]

Феррари / Ferrari
Год выпуска: 2023
Выпущено: США, Великобритания, Италия, Китай, Forward Pass
Жанр: Драма, биография, история
Режиссер: Майкл Манн / Michael Mann
В ролях: Адам Драйвер, Пенелопа Крус, Шейлин Вудли, Сара Гадон, Гэбриел Леоне, Джек О`Коннелл, Патрик Демпси, Микеле Савойя, Эрик Хауген, Бен Коллинз
О фильме: 1957 год. После утраты сына семейная жизнь экс-гонщика Энцо Феррари переживает кризис, а над знаменитой итальянской Скудерией нависла угроза банкротства. Чтобы круто поменять свою жизнь, он принимает участие в грандиозной гонке на выносливость Mille Miglia.

Продолжительность: 02:10:39
Перевод: Профессиональный (многоголосый, закадровый) | NewStudio | 18 +
Субтитры: Русские, английские
Формат: MKV
Качество: WEB-DL 1080p | AMZN
Видео: MPEG-4 AVC, 6440 Кбит/с, 1920x816
Аудио #1: AC3, 6 ch, 384 Кбит/с | RUS |
Аудио #2: E-AC3 JOC, 6 ch, 768 Кбит/с | ENG |

Скриншоты

-

MediaInfo

Общее
Уникальный идентификатор : 151102591033794903291358224076901356293 (0x71AD4CEBE814186A65AAC726F4BE9305)
Полное имя : D:TorrentsFerrari.2023.1080p_от New-Team.mkv
Формат : Matroska
Версия формата : Version 4
Размер файла : 6,93 Гбайт
Продолжительность : 2 ч. 10 м.
Общий поток : 7 590 Кбит/сек
Название фильма : Ferrari.2023.1080p_от New-Team
Дата кодирования : UTC 2024-01-28 15:13:34
Программа кодирования : mkvmerge v79.0 ('Funeral Pyres') 64-bit
Библиотека кодирования : libebml v1.4.4 + libmatroska v1.7.1
Видео
Идентификатор : 1
Формат : AVC
Формат/Информация : Advanced Video Codec
Профиль формата : High@L4
Настройки формата : CABAC / 4 Ref Frames
Параметр CABAC формата : Да
Параметр RefFrames формата : 4 кадра
Идентификатор кодека : V_MPEG4/ISO/AVC
Продолжительность : 2 ч. 10 м.
Вид битрейта : Постоянный
Битрейт : 6 440 Кбит/сек
Номинальный битрейт : 10 000 Кбит/сек
Ширина : 1 920 пикселей
Высота : 816 пикселей
Соотношение сторон : 2,35:1
Режим частоты кадров : Постоянный
Частота кадров : 23,976 (24000/1001) кадра/сек
Цветовое пространство : YUV
Субдискретизация насыщенности : 4:2:0
Битовая глубина : 8 бит
Тип развёртки : Прогрессивная
Бит/(Пиксели*Кадры) : 0.171
Размер потока : 5,88 Гбайт (85%)
Язык : English
Default : Да
Forced : Нет
Цветовой диапазон : Limited
Основные цвета : BT.709
Характеристики трансфера : BT.709
Коэффициенты матрицы : BT.709
Аудио #1
Идентификатор : 2
Формат : AC-3
Формат/Информация : Audio Coding 3
Коммерческое название : Dolby Digital
Идентификатор кодека : A_AC3
Продолжительность : 2 ч. 10 м.
Вид битрейта : Постоянный
Битрейт : 384 Кбит/сек
Каналы : 6 каналов
Channel layout : L R C LFE Ls Rs
Частота : 48,0 КГц
Частота кадров : 31,250 кадров/сек (1536 SPF)
Метод сжатия : С потерями
Размер потока : 357 Мбайт (5%)
Заголовок : MVO - NewStudio
Язык : Russian
Service kind : Complete Main
Default : Да
Forced : Нет
Аудио #2
Идентификатор : 3
Формат : E-AC-3 JOC
Формат/Информация : Enhanced AC-3 with Joint Object Coding
Коммерческое название : Dolby Digital Plus with Dolby Atmos
Идентификатор кодека : A_EAC3
Продолжительность : 2 ч. 10 м.
Вид битрейта : Постоянный
Битрейт : 768 Кбит/сек
Каналы : 6 каналов
Channel layout : L R C LFE Ls Rs
Частота : 48,0 КГц
Частота кадров : 31,250 кадров/сек (1536 SPF)
Метод сжатия : С потерями
Задержка видео : 23 с. 668 мс.
Размер потока : 715 Мбайт (10%)
Заголовок : Original
Язык : English
Service kind : Complete Main
Default : Нет
Forced : Нет
Complexity index : 16
Number of dynamic objects : 15
Bed channel count : 1 канал
Bed channel configuration : LFE
Текст #1
Идентификатор : 4
Формат : UTF-8
Идентификатор кодека : S_TEXT/UTF8
Идентификатор кодека/Информация : UTF-8 Plain Text
Продолжительность : 2 ч. 2 м.
Битрейт : 68 бит/сек
Count of elements : 1260
Размер потока : 61,7 Кбайт (0%)
Заголовок : [full]
Язык : Russian
Default : Нет
Forced : Нет
Текст #2
Идентификатор : 5
Формат : UTF-8
Идентификатор кодека : S_TEXT/UTF8
Идентификатор кодека/Информация : UTF-8 Plain Text
Продолжительность : 1 ч. 57 м.
Битрейт : 43 бит/сек
Count of elements : 1269
Размер потока : 37,3 Кбайт (0%)
Заголовок : [full]
Язык : English
Default : Нет
Forced : Нет
Текст #3
Идентификатор : 6
Формат : UTF-8
Идентификатор кодека : S_TEXT/UTF8
Идентификатор кодека/Информация : UTF-8 Plain Text
Продолжительность : 2 ч. 8 м.
Битрейт : 44 бит/сек
Count of elements : 1453
Размер потока : 42,0 Кбайт (0%)
Заголовок : [SDH]
Язык : English
Default : Нет
Forced : Нет
Меню
00:00:00.000 : en:Chapter 01
00:10:53.403 : en:Chapter 02
00:21:13.398 : en:Chapter 03
00:30:40.215 : en:Chapter 04
00:41:09.844 : en:Chapter 05
00:51:17.619 : en:Chapter 06
01:03:53.708 : en:Chapter 07
01:10:52.377 : en:Chapter 08
01:20:11.519 : en:Chapter 09
01:30:57.499 : en:Chapter 10
01:41:13.782 : en:Chapter 11
01:52:10.021 : en:Chapter 12
02:04:29.094 : en:Chapter 13
[ivtracker.org].t41260.torrent 
 ЗОЛОТАЯ РАЗДАЧА! СКАЧАННОЕ НЕ ЗАСЧИТЫВАЕТСЯ! 
Торрент: Зарегистрирован [ 2024-02-11 21:12 ] · 1B42819C9F5F07586BB562CDF4D16D7CE7AD3607

Скачать .torrent

Скачать

139 KB

Статус: проверено · admin · 11 дней назад
Скачан: 0 раз
Размер: 6.93 GB
Поделиться:
 
Похожие темы
[Профиль] [ЛС]
Вернуться к началу
Показать сообщения:    
Ответить на тему

Текущее время: 22-Фев 23:50

Часовой пояс: UTC + 3



Вы не можете начинать темы
Вы не можете отвечать на сообщения
Вы не можете редактировать свои сообщения
Вы не можете удалять свои сообщения
Вы не можете голосовать в опросах
Вы не можете прикреплять файлы к сообщениям
Вы можете скачивать файлы