Филин [2 сезон: 1-24 серии из 24] (2022) WEB-DLRip от Files-x

Ответить на тему
Статистика раздачи
Размер:  12.69 GB   |    Зарегистрирован:  21 день   |    Скачан:  0 раз
Сидов:  2  [  0 KB/s  ]   Подробная статистика пиров
 
   
 
 
Автор Сообщение

Pensioner ®

Статус: Не в сети

Пол: Мужской

Стаж: 1 год 2 месяца

Сообщений: 69

Репутация: 30 [+] [-]

Создавать темы 14-Мар-2023 17:14 | #1

[Цитировать]

Филин Год выпуска: 2022
Жанр: Детектив, драма, комедия, мистика
Выпущено: Россия, Кинокомпания «Триикс Медиа» по заказу АО «Телерадиокомпания «Петербург», «Пятый канал»
Режиссер: Дмитрий Аверин (II)
В ролях: Данила Якушев, Екатерина Зорина, Андрей Терентьев, Екатерина Рябова, Михаил Николаев, Василий Степанов (IV), Сергей Евдокимов, Дарья Кукарских, Виктория Плоп, Александр Халюта, Арсений Бородин (II), Василий Рукша, Тимур Ворохов, Лидия Емельяненко, Николай Яковлев (III)
О сериале: Алексей Филиппов – травматолог, заведующий отделением экстренной травматологии одной из городских больниц Петербурга. Десять лет назад он попал в ДТП, после которого заново учился ходить и жить. Из-за травмы он почти перестал спать, за что и получил от коллег прозвище «Филин». Все свое свободное время, а это 24 часа в сутки, он тратит на саморазвитие: изучает иностранные языки, по несколько раз проходит самые сложные компьютерные игры, легко собирает кубик Рубика. Кроме того, он открыл в себе способности детектива. В силу профессии Филин сталкивается с различными травмами пациентов - от бытовых переломов до ножевых и огнестрельных ранений. Попадаются и криминальные пациенты. Во всех этих историях Филин поневоле начинает выяснять подробности и подключается к расследованию.

Качество: WEB-DLRip
Видео: XviD, ~ 1600 Кбит/с, 720x400
Аудио: AC3, 2 ch, 192 Кбит/с
Продолжительность: 24 x ~ 00:42:00
Перевод: Не требуется
Субтитры: Нет

Скриншоты

MediaInfo

Общее
Полное имя: C:\films\Филин .s02.2023.WEB-DLRip.Files-x\01. Филин .s02.2023.WEB-DLRip.Files-x.avi
Формат: AVI
Формат/Информация: Audio Video Interleave
Размер файла: 547 Мбайт
Продолжительность: 42 м. 36 с.
Общий поток: 1 794 Кбит/сек
Программа кодирования: VirtualDubMod 1.5.10.3 | https://www.virtualdub-fr.org || (build 2550/release)
Библиотека кодирования: VirtualDubMod build 2550/release
Видео
Идентификатор: 0
Формат: MPEG-4 Visual
Профиль формата: Advanced Simple@L5
Настройки формата: BVOP1 / Custom Matrix
Параметр BVOP формата: 1
Параметр QPel формата: Нет
Параметр GMC формата: Без точки перехода
Параметр матрицы формата: Выборочная
Идентификатор кодека: XVID
Идентификатор кодека/Подсказка: XviD
Продолжительность: 42 м. 36 с.
Битрейт: 1 592 Кбит/сек
Ширина: 720 пикселей
Высота: 400 пикселей
Соотношение сторон: 16:9
Частота кадров: 25, 000 кадров/сек
Цветовое пространство: YUV
Субдискретизация насыщенности: 4:2:0
Битовая глубина: 8 бит
Тип развёртки: Прогрессивная
Метод сжатия: С потерями
Бит/(Пиксели*Кадры): 0.221
Размер потока: 485 Мбайт (89%)
Библиотека кодирования: XviD 73
Аудио
Идентификатор: 1
Формат: AC-3
Формат/Информация: Audio Coding 3
Коммерческое название: Dolby Digital
Идентификатор кодека: 2000
Продолжительность: 42 м. 36 с.
Вид битрейта: Постоянный
Битрейт: 192 Кбит/сек
Каналы: 2 канала
Channel layout: L R
Частота: 48, 0 КГц
Частота кадров: 31, 250 кадров/сек (1536 SPF)
Метод сжатия: С потерями
Размер потока: 58, 5 Мбайт (11%)
Выравнивание: Разделение по промежуткам
Продолжительность промежутка: 40 мс. (1, 00 видеокадр)
Время предзагрузки промежутка: 500 мс.
Service kind: Complete Main

Внимание! Раздача ведётся путём добавления новых серий

Раздача ведётся путём добавления новых серий, при каждом добавлении создаётся новый торрент. Чтобы начать докачку новой серии, пользователям необходимо сделать следующее:
- Остановить скачивание.
- Удалить старый торрент у себя из клиента (старые серии удалять не надо).
- Скачать новый торрент и запустить его у себя в клиенте вместо старого, при этом указать клиенту путь в старую папку куда и должно происходить скачивание новых серий.
Ваш клиент при этом должен произвести хеширование (проверку) старой папки (если не производит сам - помогите ему сделать это), и будет докачивать только те серии которых у вас ещё нет. Старые серии при этом не удаляются, а продолжают раздаваться!
[ivtracker.org].t39945.torrent 
 ЗОЛОТАЯ РАЗДАЧА! СКАЧАННОЕ НЕ ЗАСЧИТЫВАЕТСЯ! 
Торрент: Зарегистрирован [ 2024-02-11 21:05 ] · 1971CAB55F6275DDA8F0919224B7E417C81B9364

Скачать .torrent

Скачать

66 KB

Статус: проверено · Pensioner · 21 день назад
Скачан: 0 раз
Размер: 12.69 GB
Поделиться:
 
Похожие темы


Последний раз редактировалось: Pensioner (2024-02-11 21:05), всего редактировалось 2 раз(а)
[Профиль] [ЛС]
Вернуться к началу

Pensioner ®

Статус: Не в сети

Пол: Мужской

Стаж: 1 год 2 месяца

Сообщений: 69

Репутация: 30 [+] [-]

Создавать темы 06-Апр-2023 18:02 | #2 (спустя 23 дня)

[Цитировать]

Добавлены 19-24 серии
[Профиль] [ЛС]
Вернуться к началу
Показать сообщения:    
Ответить на тему

Текущее время: 04-Мар 12:13

Часовой пояс: UTC + 3



Вы не можете начинать темы
Вы не можете отвечать на сообщения
Вы не можете редактировать свои сообщения
Вы не можете удалять свои сообщения
Вы не можете голосовать в опросах
Вы не можете прикреплять файлы к сообщениям
Вы можете скачивать файлы