Аркаим. Колесница времени (2022) HDTVRip 720p

Ответить на тему
Статистика раздачи
Размер:  1.65 GB   |    Зарегистрирован:  1 год 11 месяцев   |    Скачан:  0 раз

Полного источника не было: Никогда

 
   
 
 
Автор Сообщение

admin ®

Статус: Не в сети

Стаж: 6 лет 6 месяцев

Сообщений: 23695

Репутация: 0 [+] [-]

Откуда: Россия

Создавать темы 11-Май-2022 00:33 | #1

[Цитировать]

Информация о фильме
Название: Аркаим. Колесница времени
Год выхода: 2022
Жанр: Документальный, история, исследования
Режиссер: Дмитрий Васильев
В ролях: Сергей Пускепалис
О фильме:
Фильм исследует феномен исчезнувшей цивилизации бронзового века, впервые обнаруженной на Южном Урале, на территории современной Челябинской области, всего 50 лет назад. Оказалось, что четыре тысячи лет назад далеко в степях, вдали от крупнейших мировых цивилизаций Египта или Древнего Востока, существовала страна огромных крепостей. В них добывали медь и золото и разводили лошадей. И именно здесь раньше всех на планете появилась лёгкая боевая колесница со спицами. В XXI веке до нашей эры синташтинцы совершили технологический переворот и... исчезли. В XXI веке новой эры челябинские учёные впервые в мире решаются воссоздать синташтинскую колесницу, чтобы показать, как появились мастера колесничного боя - первые в истории профессиональные воины, рыцари бронзового века. Фильм фиксирует этот эксперимент, который приведет к открытию мирового масштаба. Создатели фильма ищут ответы на вопросы: как в этих местах оказалось возможным совершить крупные мировые открытия? Почему в крепости Аркаим, крупнейшем из найденных синташтинских поселений, люди прожили всего 100 лет, а потом ушли? И на что способна синташтинская колесница - прародительница колесниц египетских фараонов и римских императоров, принцип которой использовался даже в первых автомобилях спустя 40 веков? Основная часть фильма снята в Челябинске и Челябинской области. В съёмках принимают участие уральские ученые и эксперты из Великобритании, США, Греции, следящие за экспериментом и исследованиями синташтинской культуры.
Страна: Россия
Студия: "Арт Медиа Групп" по заказу "ЮГК"
Продолжительность: 00:56:22
Перевод: Не требуется
Файл
Кодек: AVC/H.264
Качество: HDTVRip 720p
Видео: 1280x720 (16:9), 25 fps, AVC (H.264), High@L4,1, 4000 kbps avg, 0.174 bit/pixel
Звук: Русский 48 kHz, AC3 Dolby Digital, 2/0 (L,R) ch, ~192.00 kbps avg
Семпл

MediaInfo

Complete name : F:НаладкиАркаим_ Колесница времени _720p.mkv
Format : Matroska
Format version : Version 4
File size : 1.65 GiB
Duration : 56 min 22 s
Overall bit rate : 4 186 kb/s
Encoded date : UTC 2022-05-10 04:03:04
Writing application : mkvmerge v6.6.0 ('The Edge Of The In Between') built on Dec 1 2013 17:55:00
Writing library : libebml v1.3.0 + libmatroska v1.4.1
Video
ID : 1
Format : AVC
Format/Info : Advanced Video Codec
Format profile : [email protected]
Format settings : CABAC / 9 Ref Frames
Format settings, CABAC : Yes
Format settings, Reference : 9 frames
Codec ID : V_MPEG4/ISO/AVC
Duration : 56 min 22 s
Bit rate : 4 000 kb/s
Width : 1 280 pixels
Height : 720 pixels
Display aspect ratio : 16:9
Frame rate mode : Constant
Frame rate : 25.000 FPS
Color space : YUV
Chroma subsampling : 4:2:0
Bit depth : 8 bits
Scan type : Progressive
Bits/(Pixel*Frame) : 0.174
Stream size : 1.54 GiB (93%)
Writing library : x264 core 164 r3079 d9a19f0
Encoding settings : cabac=1 / ref=9 / deblock=1:-3:-3 / analyse=0x3:0x113 / me=umh / subme=10 / psy=1 / psy_rd=1.00:0.15 / mixed_ref=1 / me_range=32 / chroma_me=1 / trellis=2 / 8x8dct=1 / cqm=0 / deadzone=21,11 / fast_pskip=1 / chroma_qp_offset=-3 / threads=16 / lookahead_threads=2 / sliced_threads=0 / nr=0 / decimate=1 / interlaced=0 / bluray_compat=0 / constrained_intra=0 / bframes=10 / b_pyramid=2 / b_adapt=2 / b_bias=0 / direct=3 / weightb=1 / open_gop=0 / weightp=2 / keyint=250 / keyint_min=25 / scenecut=40 / intra_refresh=0 / rc_lookahead=60 / rc=2pass / mbtree=1 / bitrate=4000 / ratetol=1.0 / qcomp=0.60 / qpmin=0 / qpmax=69 / qpstep=4 / cplxblur=20.0 / qblur=0.5 / vbv_maxrate=14000 / vbv_bufsize=14000 / nal_hrd=none / filler=0 / ip_ratio=1.40 / aq=1:1.00
Default : Yes
Forced : No
Audio
ID : 2
Format : AC-3
Format/Info : Audio Coding 3
Commercial name : Dolby Digital
Codec ID : A_AC3
Duration : 56 min 22 s
Bit rate mode : Constant
Bit rate : 192 kb/s
Channel(s) : 2 channels
Channel layout : L R
Sampling rate : 48.0 kHz
Frame rate : 31.250 FPS (1536 SPF)
Bit depth : 16 bits
Compression mode : Lossy
Stream size : 77.4 MiB (5%)
Language : Russian
Service kind : Complete Main
Default : Yes
Forced : No
[ivtracker.org].t34459.torrent 
 ЗОЛОТАЯ РАЗДАЧА! СКАЧАННОЕ НЕ ЗАСЧИТЫВАЕТСЯ! 
Торрент: Зарегистрирован [ 2022-05-11 00:33 ] · D5D95624EF49A05C41655BDD04FB81C4C6935E19

Скачать .torrent

Скачать

17 KB

Статус: проверено · admin · 1 год 11 месяцев назад
Скачан: 0 раз
Размер: 1.65 GB
Поделиться:
 
Похожие темы
[Профиль] [ЛС]
Вернуться к началу
Показать сообщения:    
Ответить на тему

Текущее время: 20-Апр 07:50

Часовой пояс: UTC + 3



Вы не можете начинать темы
Вы не можете отвечать на сообщения
Вы не можете редактировать свои сообщения
Вы не можете удалять свои сообщения
Вы не можете голосовать в опросах
Вы не можете прикреплять файлы к сообщениям
Вы можете скачивать файлы