Viasat History: Кем были настоящие неандертальцы / Who Was the Real Neanderthal? (2020) HDTVRip 720p | P1

Ответить на тему
Статистика раздачи
Размер:  1.47 GB   |    Зарегистрирован:  2 года 1 месяц   |    Скачан:  0 раз

Полного источника не было: Никогда

 
   
 
 
Автор Сообщение

admin ®

Статус: Не в сети

Стаж: 6 лет 6 месяцев

Сообщений: 23695

Репутация: 0 [+] [-]

Откуда: Россия

Создавать темы 13-Мар-2022 06:38 | #1

[Цитировать]

Информация о фильме
Название: Кем были настоящие неандертальцы
Оригинальное название: Who Was the Real Neanderthal?
Год выхода: 2020
Жанр: Документальный, история, палеонтология
Режиссер: Яник Роуз
О фильме:
Наше путешествие начинается с выдающихся палеохудожников Эдри и Альфонса Кеннисов, которые хотят воссоздать внешность неандертальцев, внимательно изучая то, как их образ жизни влиял на их физическую форму. Новый анализ реликвий неандертальцев показывает удивительные способы охоты, умение заботиться о близких и многогранный духовный мир и гораздо более сложную социальную структуру, чем считалось раньше.
Страна: Великобритания
Студия: Ideacom International International, cbc docs
Продолжительность: 00:48:59
Перевод: Профессиональный (одноголосый закадровый) SDI Media
Файл
Кодек: AVC/H.264
Качество: HDTVRip 720p
Видео: 1280x720 (16:9), 25 fps, AVC (H.264), High@L4,1, 4000 kbps avg, 0.174 bit/pixel
Звук:
Русский 48 kHz, AC3 Dolby Digital, 2/0 (L,R) ch, ~160.00 kbps avg
Английский 48 kHz, AC3 Dolby Digital, 2/0 (L,R) ch, ~128.00 kbps

MediaInfo

Complete name : F:НаладкиНастоящие неандерталцы_.mkv
Format : Matroska
Format version : Version 4
File size : 1.47 GiB
Duration : 48 min 59 s
Overall bit rate : 4 289 kb/s
Encoded date : UTC 2022-03-07 14:23:01
Writing application : mkvmerge v6.6.0 ('The Edge Of The In Between') built on Dec 1 2013 17:55:00
Writing library : libebml v1.3.0 + libmatroska v1.4.1
Video
ID : 1
Format : AVC
Format/Info : Advanced Video Codec
Format profile : [email protected]
Format settings : CABAC / 9 Ref Frames
Format settings, CABAC : Yes
Format settings, Reference : 9 frames
Codec ID : V_MPEG4/ISO/AVC
Duration : 48 min 59 s
Bit rate : 4 000 kb/s
Width : 1 280 pixels
Height : 720 pixels
Display aspect ratio : 16:9
Frame rate mode : Constant
Frame rate : 25.000 FPS
Color space : YUV
Chroma subsampling : 4:2:0
Bit depth : 8 bits
Scan type : Progressive
Bits/(Pixel*Frame) : 0.174
Stream size : 1.34 GiB (91%)
Writing library : x264 core 164 r3079 d9a19f0
Encoding settings : cabac=1 / ref=9 / deblock=1:-3:-3 / analyse=0x3:0x113 / me=umh / subme=10 / psy=1 / psy_rd=1.00:0.15 / mixed_ref=1 / me_range=32 / chroma_me=1 / trellis=2 / 8x8dct=1 / cqm=0 / deadzone=21,11 / fast_pskip=1 / chroma_qp_offset=-3 / threads=16 / lookahead_threads=2 / sliced_threads=0 / nr=0 / decimate=1 / interlaced=0 / bluray_compat=0 / constrained_intra=0 / bframes=10 / b_pyramid=2 / b_adapt=2 / b_bias=0 / direct=3 / weightb=1 / open_gop=0 / weightp=2 / keyint=250 / keyint_min=25 / scenecut=40 / intra_refresh=0 / rc_lookahead=60 / rc=2pass / mbtree=1 / bitrate=4000 / ratetol=1.0 / qcomp=0.60 / qpmin=0 / qpmax=69 / qpstep=4 / cplxblur=20.0 / qblur=0.5 / vbv_maxrate=14000 / vbv_bufsize=14000 / nal_hrd=none / filler=0 / ip_ratio=1.40 / aq=1:1.00
Default : Yes
Forced : No
Audio #1
ID : 2
Format : AC-3
Format/Info : Audio Coding 3
Commercial name : Dolby Digital
Codec ID : A_AC3
Duration : 48 min 59 s
Bit rate mode : Constant
Bit rate : 160 kb/s
Channel(s) : 2 channels
Channel layout : L R
Sampling rate : 48.0 kHz
Frame rate : 31.250 FPS (1536 SPF)
Bit depth : 16 bits
Compression mode : Lossy
Stream size : 56.1 MiB (4%)
Language : Russian
Service kind : Complete Main
Default : Yes
Forced : Yes
Audio #2
ID : 3
Format : AC-3
Format/Info : Audio Coding 3
Commercial name : Dolby Digital
Codec ID : A_AC3
Duration : 48 min 59 s
Bit rate mode : Constant
Bit rate : 128 kb/s
Channel(s) : 2 channels
Channel layout : L R
Sampling rate : 48.0 kHz
Frame rate : 31.250 FPS (1536 SPF)
Bit depth : 16 bits
Compression mode : Lossy
Stream size : 44.9 MiB (3%)
Language : English
Service kind : Complete Main
Default : No
Forced : No
[ivtracker.org].t32446.torrent 
 ЗОЛОТАЯ РАЗДАЧА! СКАЧАННОЕ НЕ ЗАСЧИТЫВАЕТСЯ! 
Торрент: Зарегистрирован [ 2022-03-13 06:38 ] · 093A4CF9CCFA706D1AE845E2CD407B5D5B4C93B3

Скачать .torrent

Скачать

15 KB

Статус: проверено · admin · 2 года 1 месяц назад
Скачан: 0 раз
Размер: 1.47 GB
Поделиться:
 
Похожие темы
[Профиль] [ЛС]
Вернуться к началу
Показать сообщения:    
Ответить на тему

Текущее время: 20-Апр 07:18

Часовой пояс: UTC + 3



Вы не можете начинать темы
Вы не можете отвечать на сообщения
Вы не можете редактировать свои сообщения
Вы не можете удалять свои сообщения
Вы не можете голосовать в опросах
Вы не можете прикреплять файлы к сообщениям
Вы можете скачивать файлы