Зверопой 2 / Sing 2 [24-bit Hi-Res] (2021) FLAC

Ответить на тему
Статистика раздачи
Размер:  589 MB   |    Зарегистрирован:  2 года 4 месяца   |    Скачан:  0 раз

Полного источника не было: Никогда

 
   
 
 
Автор Сообщение

admin ®

Статус: Не в сети

Стаж: 6 лет 9 месяцев

Сообщений: 23696

Репутация: 0 [+] [-]

Откуда: Россия

Создавать темы 14-Фев-2022 04:16 | #1

[Цитировать]

Название: Зверопой 2 / Sing 2
Исполнитель: Various Artists
Год: 2021
Жанр: Score
Страна: USA
Продолжительность: 00:48:52
Формат/Кодек: FLAC
Тип рипа: Tracks
Битрейт аудио: Lossless
Разрядность: 24 Bit/44.1 kHz
Носитель: WEB

Трек-лист

01. U2 - Your Song Saved My Life (03:31)
02. Tori Kelly, Taron Egerton, Reese Witherspoon, Nick Kroll - Let's Go Crazy (03:09)
03. Kiana Ledé - Can't Feel My Face (03:21)
04. Scarlett Johansson - Heads Will Roll (03:37)
05. Sing 2 Cast - Sing 2 Audition Medley (01:47)
06. Tori Kelly, Taron Egerton, Scarlett Johansson, Reese Witherspoon, Nick Kroll - Where the Streets Have No Name (02:36)
07. Taron Egerton, Tori Kelly - There's Nothing Holdin' Me Back (03:23)
08. Sam I, Anitta, Bia, Jarina De Marco - Suéltate (03:30)
09. Scarlett Johansson - Stuck In A Moment You Can't Get Out Of (03:39)
10. Bomba Estéro - Soy Yo (Sing 2 Mix) (02:57)
11. Taron Egerton - A Sky Full of Stars (03:26)
12. Halsey - Could Have Been Me (02:28)
13. Tori Kelly, Pharrell Williams - I Say A Little Prayer (02:09)
14. Reese Witherspoon, Nick Kroll - Break Free (01:34)
15. Scarlett Johansson, Bono - I Still Haven’t Found What I’m Looking For (03:01)
16. Adam Buxton, Fancy Feelings, DSCOSTU - Tippy Toes (BONUS TRACK) (02:08)
17. Keke Palmer, Scarlett Johansson, Taron Egerton, Reese Witherspoon, Tori Kelly - Christmas (Baby Please Come Home) (02:36)

DRM
foobar2000 1.6.6 / Dynamic Range Meter 1.1.1
--------------------------------------------------------------------------------
Analyzed: Adam Buxton, Fancy Feelings, DSCOSTU / Sing 2 (Original Motion Picture Soundtrack) (1)
Bomba Estéro / Sing 2 (Original Motion Picture Soundtrack) (2)
Halsey / Sing 2 (Original Motion Picture Soundtrack) (3)
Keke Palmer, Scarlett Johansson, Taron Egerton, Reese Witherspoon, Tori Kelly / Sing 2 (Original Motion Picture Soundtrack) (4)
Kiana Ledé / Sing 2 (Original Motion Picture Soundtrack) (5)
Reese Witherspoon, Nick Kroll / Sing 2 (Original Motion Picture Soundtrack) (6)
Sam I, Anitta, Bia, Jarina De Marco / Sing 2 (Original Motion Picture Soundtrack) (7)
Scarlett Johansson, Bono / Sing 2 (Original Motion Picture Soundtrack) (8)
Scarlett Johansson / Sing 2 (Original Motion Picture Soundtrack) (9-10)
Sing 2 Cast / Sing 2 (Original Motion Picture Soundtrack) (11)
Taron Egerton, Tori Kelly / Sing 2 (Original Motion Picture Soundtrack) (12)
Taron Egerton / Sing 2 (Original Motion Picture Soundtrack) (13)
Tori Kelly, Pharrell Williams / Sing 2 (Original Motion Picture Soundtrack) (14)
Tori Kelly, Taron Egerton, Reese Witherspoon, Nick Kroll / Sing 2 (Original Motion Picture Soundtrack) (15)
Tori Kelly, Taron Egerton, Scarlett Johansson, Reese Witherspoon, Nick Kroll / Sing 2 (Original Motion Picture Soundtrack) (16)
U2 / Sing 2 (Original Motion Picture Soundtrack) (17)
--------------------------------------------------------------------------------
DR Peak RMS Duration Track
--------------------------------------------------------------------------------
DR6 0.00 dB -8.08 dB 2:08 16-Tippy Toes (BONUS TRACK)
DR5 0.00 dB -8.61 dB 2:58 10-Soy Yo (Sing 2 Mix)
DR5 -0.01 dB -7.39 dB 2:29 12-Could Have Been Me
DR6 0.00 dB -8.31 dB 2:36 17-Christmas (Baby Please Come Home)
DR5 0.00 dB -6.33 dB 3:22 03-Can't Feel My Face
DR5 0.00 dB -6.98 dB 1:34 14-Break Free
DR4 0.00 dB -7.96 dB 3:31 08-Suéltate
DR5 0.00 dB -8.62 dB 3:01 15-I Still Haven’t Found What I’m Looking For
DR5 0.00 dB -6.56 dB 3:38 04-Heads Will Roll
DR5 0.00 dB -9.38 dB 3:40 09-Stuck In A Moment You Can't Get Out Of
DR5 0.00 dB -7.49 dB 1:47 05-Sing 2 Audition Medley
DR6 0.00 dB -8.00 dB 3:23 07-There's Nothing Holdin' Me Back
DR4 0.00 dB -7.29 dB 3:26 11-A Sky Full of Stars
DR5 0.00 dB -7.15 dB 2:09 13-I Say A Little Prayer
DR6 0.00 dB -8.11 dB 3:09 02-Let's Go Crazy
DR5 0.00 dB -8.78 dB 2:37 06-Where the Streets Have No Name
DR6 0.00 dB -7.59 dB 3:31 01-Your Song Saved My Life
--------------------------------------------------------------------------------
Number of tracks: 17
Official DR value: DR5
Samplerate: 44100 Hz
Channels: 2
Bits per sample: 24
Bitrate: 1629 kbps
Codec: FLAC
================================================================================
[ivtracker.org].t32140.torrent 
 ЗОЛОТАЯ РАЗДАЧА! СКАЧАННОЕ НЕ ЗАСЧИТЫВАЕТСЯ! 
Торрент: Зарегистрирован [ 2022-02-14 04:16 ] · 0B4B0FCBF3D506D7CFD3B7AFDD4BC74F6BB4C3C9

Скачать .torrent

Скачать

13 KB

Статус: проверено · admin · 2 года 4 месяца назад
Скачан: 0 раз
Размер: 589 MB
Поделиться:
 
Похожие темы
[Профиль] [ЛС]
Вернуться к началу
Показать сообщения:    
Ответить на тему

Текущее время: 13-Июл 03:22

Часовой пояс: UTC + 3



Вы не можете начинать темы
Вы не можете отвечать на сообщения
Вы не можете редактировать свои сообщения
Вы не можете удалять свои сообщения
Вы не можете голосовать в опросах
Вы не можете прикреплять файлы к сообщениям
Вы можете скачивать файлы