Muse - Won't Stand Down [Клип] (2022) WEBRip 1080p

Reply to topic
DL-List and Torrent activity [Update пиров]
Size:  40 MB   |    Registered:  4 months 14 days   |    Completed:  0 times

Seeder not seen: Never

Leechers:  1  [  0 KB/s  ]   Show peers in full details
 
   
 
 
Author Message

admin ®

Gender: Male

Longevity: 4 years 8 months

Posts: 18166

Location: Россия

Post 15-Jan-2022 04:13

[Quote]

Название: Won't stand down [Клип]
Исполнитель: Muse
Год: 2022
Жанр: Alternative-Rock
Страна: UK
Продолжительность: 00:04:00
Формат/Кодек: MKV/H.264
Video: AVC, 1268 kb/s, 1920x1078 (1.781), 23.976 fps
Audio:AAC, 128 kb/s, 2 channels, 44.1 kHz

Mi

Format : Matroska
Format version : Version 4
File size : 40.1 MiB
Duration : 4 min 0 s
Overall bit rate : 1 398 kb/s
Encoded date : UTC 2022-01-13 19:33:11
Writing application : mkvmerge v51.0.0 ('I Wish') 64-bit
Writing library : libebml v1.4.0 + libmatroska v1.6.2
Video
ID : 1
Format : AVC
Format/Info : Advanced Video Codec
Format profile : High@L4
Format settings : CABAC / 3 Ref Frames
Format settings, CABAC : Yes
Format settings, Reference frames : 3 frames
Codec ID : V_MPEG4/ISO/AVC
Duration : 4 min 0 s
Bit rate : 1 268 kb/s
Width : 1 920 pixels
Height : 1 078 pixels
Display aspect ratio : 16:9
Frame rate mode : Constant
Frame rate : 23.976 (24000/1001) FPS
Color space : YUV
Chroma subsampling : 4:2:0
Bit depth : 8 bits
Scan type : Progressive
Bits/(Pixel*Frame) : 0.026
Stream size : 36.3 MiB (91%)
Writing library : x264 core 155 r2901 7d0ff22
Default : Yes
Forced : No
Color range : Limited
Color primaries : BT.709
Transfer characteristics : BT.709
Matrix coefficients : BT.709
Audio
ID : 2
Format : AAC LC
Format/Info : Advanced Audio Codec Low Complexity
Codec ID : A_AAC-2
Duration : 4 min 0 s
Bit rate : 128 kb/s
Channel(s) : 2 channels
Channel layout : L R
Sampling rate : 44.1 kHz
Frame rate : 43.066 FPS (1024 SPF)
Compression mode : Lossy
Stream size : 3.67 MiB (9%)
Language : English
Default : Yes
Forced : No

Скрины:

 GOLD TORRENT! DOWNLOAD TRAFFIC DOES NOT CONSIDER! 
Torrent: Registered [ 2022-01-15 04:13 ]   · 8A1B5187C8A2866300897272CE984B41D844BE0C

Download .torrent

Download

26 KB

Status: checked
Completed: 0 times
Size: 40 MB
Поделиться:
terms.php
[Profile] [PM]
Display posts:    
Reply to topic

Current time is: 29-May 04:44

All times are UTC + 3



You cannot post new topics in this forum
You cannot reply to topics in this forum
You cannot edit your posts in this forum
You cannot delete your posts in this forum
You cannot vote in polls in this forum
You cannot attach files in this forum
You can download files in this forum