Ментовские войны (11 сезон:1-16 серия из 16) (Алан Дзоциев) [2017 г., Боевик, детектив, HDTVRip]

Reply to topic
DL-List and Torrent activity [Update пиров]
Size:  8.62 GB   |    Registered:  3 years 3 months   |    Completed:  1 time
Seeders:  284  [  0 KB/s  ]   Leechers:  85  [  0 KB/s  ]   Show peers in full details
 
   
 
 
Author Message

mihis ®

Gender: Male

Longevity: 3 years 9 months

Posts: 75

Post 08-Apr-2018 20:16

[Quote]

Ментовские войны 111-16 серии из 16 Год выпуска: 2017
Страна: Россия
Производство ООО «Кинопроизводственный центр», ООО «Прогресс-Студия»
Премьера 27 ноября 2017 (НТВ)
Cерий 16
Жанр: Боевик, детектив
Продолжительность: 16 x ~ 00:45:00
Перевод: Не требуется
Cубтитры: нет
Режиссер: Алан Дзоциев
В ролях: Александр Устюгов, Андрей Биланов, Всеволод Цурило, Мария Фефилова, Андрей Родимов, Андрей Кузнецов, Роберт Студеновский, Мария Иванова, Дмитрий Мухамадеев, Светлана Смирнова и др.
Описание: Роман Георгиевич Шилов занимает пост начальника Управления уголовного розыска. Это раньше он мог рассчитывать только на себя и своих друзей, теперь в его подчинении начальники отделов: «угонного», «разбойного», по борьбе с организованной преступностью и других.
Шилов пытается уговорить Пашу Арнаутова занять вакантную должность начальника «убойного» отдела, но тот категорически отказывается. Выбор у Шилова небогатый: Джексон на пенсии, остается кандидатура Олега Климова. Однако планам Романа Георгиевича не суждено сбыться, из Ростова-на-Дону прибывает подполковник Илья Николаевич Казаков, именно его в министерстве хотят видеть на этой должности.
Качество: HDTVRip
Формат: AVI
Видео кодек: XviD
Аудио кодек: AC3
Видео: 720x400 (1.80:1), 25 fps, XviD build 73 ~1511 kbps avg, 0.21 bit/pixel
Аудио: 48 kHz, AC3 Dolby Digital, 2/0 (L,R) ch, ~192 kbps

MI

Общее
Полное имя : G:\Video\Mentovskie.voyny-11.2017.HDTVRip.Files-x\01.Mentovskie.voyny-11.2017.HDTVRip.Files-x.avi
Формат : AVI
Формат/Информация : Audio Video Interleave
Размер файла : 549 Мбайт
Продолжительность : 44 м. 47 с.
Общий поток : 1713 Кбит/сек
Программа кодирования : VirtualDubMod 1.5.10.3 | www.virtualdub-fr.org || (build 2550/release)
Библиотека кодирования : VirtualDubMod build 2550/release
Видео
Идентификатор : 0
Формат : MPEG-4 Visual
Профиль формата : Advanced Simple@L5
Параметр BVOP формата : 1
Параметр QPel формата : Нет
Параметр GMC формата : Без точки перехода
Параметр матрицы формата : Выборочная
Идентификатор кодека : XVID
Идентификатор кодека/Подсказка : XviD
Продолжительность : 44 м. 47 с.
Битрейт : 1512 Кбит/сек
Ширина : 720 пикселей
Высота : 400 пикселей
Соотношение сторон : 16:9
Частота кадров : 25,000 кадров/сек
Цветовое пространство : YUV
Субдискретизация насыщенности : 4:2:0
Битовая глубина : 8 бит
Тип развёртки : Прогрессивная
Метод сжатия : С потерями
Бит/(Пиксели*Кадры) : 0.210
Размер потока : 484 Мбайт (88%)
Библиотека кодирования : XviD 73
Аудио
Идентификатор : 1
Формат : AC-3
Формат/Информация : Audio Coding 3
Параметр Endianness формата : Big
Идентификатор кодека : 2000
Продолжительность : 44 м. 47 с.
Вид битрейта : Постоянный
Битрейт : 192 Кбит/сек
Каналы : 2 канала
Расположение каналов : Front: L R
Частота : 48,0 КГц
Частота кадров : 31,250 кадров/сек (1536 SPF)
Битовая глубина : 16 бит
Метод сжатия : С потерями
Размер потока : 61,5 Мбайт (11%)
Выравнивание : Разделение по промежуткам
Продолжительность промежутка : 40 мс. (1,00 видеокадр)
Время предзагрузки промежутка : 500 мс.
ServiceKind/String : Complete Main

Внимание! Раздача ведётся путём добавления новых серий

Внимание! Раздача ведётся путём добавления новых серий; при каждом добавлении создётся новый торрент. Чтобы начать докачку новой серии, пользователям необходимо сделать следующее:
Остановить скачивание,
Удалить старый торрент у себя из клиента (старые серии удалять не надо),
Скачать новый торрент и запустить его у себя в клиенте вместо старого, при этом указать клиенту путь в старую папку куда и должно происходить скачивание новых серий.
Ваш клиент при этом должен произвести хеширование (проверку) старой папки (если не производит сам - помогите ему сделать это), и будет докачивать только те серии которых у вас ещё нет. Старые серии при этом не удаляются, а продолжают раздаваться!
Eсли вы уже удалили старые серии, то предотвратить повторную закачку старых серий можно, отжав галочку в соответсвующих местах при запуске нового торрента. По возможности, желательно не удалять старые серии как можно дольше чтобы релизёр не столько продолжал раздавать старые серии, а смог сконцентрироваться на новых.

Скриншоты

 GOLD TORRENT! DOWNLOAD TRAFFIC DOES NOT CONSIDER! 
Torrent: Registered [ 2018-09-21 09:44 ]   · F6A80C3B52587063A7749B692B61A56B980E0453

Download .torrent

Download

45 KB

Status: checked
Completed: 1 times
Size: 8.62 GB
Поделиться:
terms.php


Last edited by mihis on 2018-09-21 09:44; edited 4 times in total
[Profile] [PM]

mihis ®

Gender: Male

Longevity: 3 years 9 months

Posts: 75

Post 08-Apr-2018 20:16 (after 20 seconds)

[Quote]

27 ноября 2017 года состоялась премьера первых восьми серий 11 сезона на НТВ. На данный момент, в производстве находятся 9-16 серии 11 сезона.
[Profile] [PM]

mihis ®

Gender: Male

Longevity: 3 years 9 months

Posts: 75

Post 18-Sep-2018 00:24 (after 5 months 9 days)

[Quote]

добавлена 9-10 серия
[Profile] [PM]

mihis ®

Gender: Male

Longevity: 3 years 9 months

Posts: 75

Post 19-Sep-2018 09:12 (after 1 day 8 hours)

[Quote]

добавлена 11-12 серия
[Profile] [PM]

mihis ®

Gender: Male

Longevity: 3 years 9 months

Posts: 75

Post 20-Sep-2018 10:09 (after 1 day)

[Quote]

добавлена 13-14 серия
[Profile] [PM]

mihis ®

Gender: Male

Longevity: 3 years 9 months

Posts: 75

Post 21-Sep-2018 09:44 (after 23 hours)

[Quote]

добавлена 15-16 серия. Финал
[Profile] [PM]
Display posts:    
Reply to topic

Current time is: 19-Jan 14:02

All times are UTC + 3



You cannot post new topics in this forum
You cannot reply to topics in this forum
You cannot edit your posts in this forum
You cannot delete your posts in this forum
You cannot vote in polls in this forum
You cannot attach files in this forum
You can download files in this forum