Спаун / Spawn (Марк Э. З. Диппе / Mark A.Z. Dippe) [1997, США, Боевик, ужасы, фэнтези, BDRip] MVO (Союз-видео) + AVO (Ю.Живов)

Reply to topic
DL-List and Torrent activity [Update пиров]
Size:  2.05 GB   |    Registered:  4 years   |    Completed:  0 times

Seeder not seen: 8 months 16 days

 
   
 
 
Author Message

admin ®

Gender: Male

Longevity: 4 years

Posts: 13087

Post 07-Oct-2017 05:41

[Quote]

СпаунSpawn«Рождённый в темноте, осужденный на справедливость»
Страна: США
Жанр: Боевик, ужасы, фэнтези
Год выпуска: 1997
Продолжительность: 01:36:22
Перевод: Профессиональный (многоголосый закадровый) Союз-видео
Перевод 2: Авторский (одноголосый закадровый) Ю.Живов
Субтитры: нет
Оригинальная аудиодорожка: нет
Режиссер: Марк Э. З. Диппе / Mark A.Z. Dippe
В ролях: Майкл Джей Уайт, Джон Легуизамо, Мартин Шин, Тереза Рэндл, Никол Уильямсон, Д.Б. Суини, Мелинда Кларк, Мико Хьюз, Сидни Бодуан, Майкл Пападжон
Описание: Краповый берет» Эл Симмонс убит своим начальником во время выполнения очередной миссии. Попав в чистилище, он заключает сделку с Дьяволом. Сатана дает ему силу, доспехи и оружие.
В обмен на то, чтобы еще раз увидеть свою жену, Симмонс должен предварить приход сил Зла на Землю. Оказавшись на свободе, он разрывает контракт в одностороннем порядке…
Доп. информация:

Качество видео: BDRip |Спаун / Spawn (1997) 1080p BD-Remux|
Формат видео: AVI
Видео: 720x384 (1.85:1), 23.976 fps, XviD build 65 ~2195 kbps avg, 0.33 bit/pixel
Аудио: 48 kHz, AC3 Dolby Digital, 2/0 (L,R) ch, ~384.00 kbps avg (MVO)
Аудио 2: 48 kHz, AC3 Dolby Digital, 2/0 (L,R) ch, ~448.00 kbps avg (AVO)

MediaInfo

General
Complete name : F:\Фильмы\Спаун\Spaun.BDRip.XviD.AC3.avi
Format : AVI
Format/Info : Audio Video Interleave
Format profile : OpenDML
File size : 2.05 GiB
Duration : 1h 36mn
Overall bit rate : 3 045 Kbps
Writing application : VirtualDubModRus 1.5.10.2 (build 2542/release)
Writing library : VirtualDubMod build 2542/release
Video
ID : 0
Format : MPEG-4 Visual
Format profile : Advanced Simple@L5
Format settings, BVOP : 2
Format settings, QPel : No
Format settings, GMC : No warppoints
Format settings, Matrix : Default (MPEG)
Codec ID : XVID
Codec ID/Hint : XviD
Duration : 1h 36mn
Bit rate : 2 195 Kbps
Width : 720 pixels
Height : 384 pixels
Display aspect ratio : 1.85:1
Frame rate : 23.976 fps
Color space : YUV
Chroma subsampling : 4:2:0
Bit depth : 8 bits
Scan type : Progressive
Compression mode : Lossy
Bits/(Pixel*Frame) : 0.331
Stream size : 1.48 GiB (72%)
Writing library : XviD 1.2.1 (UTC 2008-12-04)
Audio #1
ID : 1
Format : AC-3
Format/Info : Audio Coding 3
Mode extension : CM (complete main)
Format settings, Endianness : Big
Codec ID : 2000
Duration : 1h 36mn
Bit rate mode : Constant
Bit rate : 384 Kbps
Channel(s) : 6 channels
Channel positions : Front: L C R, Side: L R, LFE
Sampling rate : 48.0 KHz
Bit depth : 16 bits
Compression mode : Lossy
Stream size : 265 MiB (13%)
Alignment : Split accross interleaves
Interleave, duration : 42 ms (1.00 video frame)
Interleave, preload duration : 500 ms
Audio #2
ID : 2
Format : AC-3
Format/Info : Audio Coding 3
Mode extension : CM (complete main)
Format settings, Endianness : Big
Codec ID : 2000
Duration : 1h 36mn
Bit rate mode : Constant
Bit rate : 448 Kbps
Channel(s) : 6 channels
Channel positions : Front: L C R, Side: L R, LFE
Sampling rate : 48.0 KHz
Bit depth : 16 bits
Compression mode : Lossy
Stream size : 309 MiB (15%)
Alignment : Split accross interleaves
Interleave, duration : 42 ms (1.00 video frame)
Interleave, preload duration : 500 ms

Скриншот c названием фильма

Скриншоты

 GOLD TORRENT! DOWNLOAD TRAFFIC DOES NOT CONSIDER! 
Torrent: Registered [ 2017-10-07 05:41 ]   · 0A1BA62029AECF1584771DAECBC9D3E09882F336

Download .torrent

Download

11 KB

Status: checked
Completed: 0 times
Size: 2.05 GB
Поделиться:
terms.php
[Profile] [PM]
Display posts:    
Reply to topic

Current time is: 25-Oct 17:33

All times are UTC + 3



You cannot post new topics in this forum
You cannot reply to topics in this forum
You cannot edit your posts in this forum
You cannot delete your posts in this forum
You cannot vote in polls in this forum
You cannot attach files in this forum
You can download files in this forum