Оно / It (2017) BDRip 720p | L

Reply to topic
DL-List and Torrent activity [Update пиров]
Size:  6.07 GB   |    Registered:  3 years 2 months   |    Completed:  0 times
Seeders:  11  [  0 KB/s  ]   Leechers:  7  [  0 KB/s  ]   Show peers in full details
 
   
 
 
Author Message

admin ®

Gender: Male

Longevity: 3 years 4 months

Posts: 10149

Post 19-Dec-2017 20:21

[Quote]

Информация о фильме
Название: Оно
Оригинальное название: It
Год выхода: 2017
Жанр: ужасы, триллер, драма
Режиссер: Андрес Мускетти
В ролях: Джейден Либерер, Джереми Рэй Тейлор, Софиа Лиллис, Финн Вулфард, Чоузен Джейкобс, Джек Дилан Грейзер, Уайатт Олефф, Джейк Сим
О фильме:
Когда в городке Дерри, штат Мэн, начинают пропадать дети, несколько ребят сталкиваются со своими величайшими страхами и вынуждены помериться силами со злобным клоуном Пеннивайзом, чьи проявления жестокости и список жертв уходят в глубь веков...

Страна: США, Канада
Производство: New Line Cinema, KatzSmith Productions, RatPac-Dune Entertainment, Vertigo Entertainment
Продолжительность: 02:14:42
Перевод: Любительский многоголосый [Студия "Paradox" & Omskbird records]
• Перевод: Юлия Мейер
• Роли озвучивали: Максим Максимов, Алёна Соколова, Ольга Фёдорова, Маргарита Корш, Марина Гассан, Дмитрий Виноградов, Станислав Черсков
• Звукорежиссер: Павел Квентов, Юрий Гамов
Рекламы нет!
Файл
Кодек: MKV (H.264)
Качество: BDRip 720p
Видео: MPEG-4 AVC, 5166 kbps, 1280x536, 23.976 fps
Звук #1: Русский: AC3, 6 ch, 640 Kbps | "Студия "Paradox" & Omskbird records
Звук #2: Английский: AC3, 6 ch, 640 Kbps | Оригинал
Субтитры: Отсутствуют!

MediaInfo

Format : Matroska
Format version : Version 4 / Version 2
File size : 6.07 GiB
Duration : 2 h 14 min
Overall bit rate : 6 447 kb/s
Encoded date : UTC 2017-12-18 16:10:42
Writing application : mkvmerge v9.3.1 ('Mask Machine') 64bit
Writing library : libebml v1.3.4 + libmatroska v1.4.5
Video
ID : 1
Format : AVC
Format/Info : Advanced Video Codec
Format profile : High@L4.1
Format settings, CABAC : Yes
Format settings, ReFrames : 5 frames
Codec ID : V_MPEG4/ISO/AVC
Duration : 2 h 14 min
Bit rate : 5 166 kb/s
Width : 1 280 pixels
Height : 536 pixels
Display aspect ratio : 2.40:1
Frame rate mode : Constant
Frame rate : 23.976 FPS
Color space : YUV
Chroma subsampling : 4:2:0
Bit depth : 8 bits
Scan type : Progressive
Bits/(Pixel*Frame) : 0.314
Stream size : 4.86 GiB (80%)
Writing library : x264 core 152 r2851 ba24899
Encoding settings : cabac=1 / ref=5 / deblock=1:0:0 / analyse=0x3:0x133 / me=umh / subme=7 / psy=1 / psy_rd=1.00:0.00 / mixed_ref=1 / me_range=16 / chroma_me=1 / trellis=1 / 8x8dct=1 / cqm=0 / deadzone=21,11 / fast_pskip=0 / chroma_qp_offset=-2 / threads=17 / lookahead_threads=2 / sliced_threads=0 / nr=0 / decimate=1 / interlaced=0 / bluray_compat=0 / constrained_intra=0 / bframes=3 / b_pyramid=2 / b_adapt=1 / b_bias=0 / direct=1 / weightb=1 / open_gop=0 / weightp=2 / keyint=250 / keyint_min=23 / scenecut=40 / intra_refresh=0 / rc_lookahead=40 / rc=2pass / mbtree=1 / bitrate=5166 / ratetol=1.0 / qcomp=0.60 / qpmin=0 / qpmax=69 / qpstep=4 / cplxblur=20.0 / qblur=0.5 / ip_ratio=1.40 / aq=1:1.00
Language : English
Default : Yes
Forced : No
Audio #1
ID : 2
Format : AC-3
Format/Info : Audio Coding 3
Mode extension : CM (complete main)
Format settings, Endianness : Big
Codec ID : A_AC3
Duration : 2 h 14 min
Bit rate mode : Constant
Bit rate : 640 kb/s
Channel(s) : 6 channels
Channel positions : Front: L C R, Side: L R, LFE
Sampling rate : 48.0 kHz
Frame rate : 31.250 FPS (1536 spf)
Compression mode : Lossy
Stream size : 617 MiB (10%)
Title : @studio_paradox (RUS)
Language : Russian
Default : Yes
Forced : Yes
Audio #2
ID : 3
Format : AC-3
Format/Info : Audio Coding 3
Mode extension : CM (complete main)
Format settings, Endianness : Big
Codec ID : A_AC3
Duration : 2 h 14 min
Bit rate mode : Constant
Bit rate : 640 kb/s
Channel(s) : 6 channels
Channel positions : Front: L C R, Side: L R, LFE
Sampling rate : 48.0 kHz
Frame rate : 31.250 FPS (1536 spf)
Compression mode : Lossy
Stream size : 617 MiB (10%)
Language : English
Default : No
Forced : No
Menu
00:00:00.000 : en:00:00:00.000
00:09:23.646 : en:00:09:23.646
00:18:31.861 : en:00:18:31.861
00:28:26.163 : en:00:28:26.163
00:38:36.981 : en:00:38:36.981
00:48:19.438 : en:00:48:19.438
00:59:30.776 : en:00:59:30.776
01:08:52.795 : en:01:08:52.795
01:16:58.823 : en:01:16:58.823
01:26:52.958 : en:01:26:52.958
01:38:15.306 : en:01:38:15.306
01:48:40.973 : en:01:48:40.973
02:04:07.899 : en:02:04:07.899
02:09:05.655 : en:02:09:05.655

Скриншоты

 GOLD TORRENT! DOWNLOAD TRAFFIC DOES NOT CONSIDER! 
Torrent: Registered [ 2017-12-19 20:21 ]   · D6DE6F78588281992E9506D53D6838FB614D5501

Download .torrent

Download

16 KB

Status: checked
Completed: 0 times
Size: 6.07 GB
Поделиться:
terms.php
[Profile] [PM]
Display posts:    
Reply to topic

Current time is: 25-Feb 08:24

All times are UTC + 3



You cannot post new topics in this forum
You cannot reply to topics in this forum
You cannot edit your posts in this forum
You cannot delete your posts in this forum
You cannot vote in polls in this forum
You cannot attach files in this forum
You can download files in this forum